.
Авторизация | Регистрация
Хочешь лучшие торренты? Добавь свой email!
Добавить
» » Сен-Лоран. Стиль – это я / Saint Laurent (2014) HDRip от AleksSin | D | iTunes скачать торрент бесплатно




    Сен-Лоран. Стиль – это я / Saint Laurent (2014) HDRip от AleksSin | D | iTunes скачать торрент бесплатно

    Опубликовал: Админ | Дата: 14-04-2015, 01:00 | Просмотров: 165


    Детально о кино
    Русское название:Сен-Лоран. Стиль – это я
    Русское название в мировом прокате:Saint Laurent
    Создали в:2014
    Категория жанра:драма, биография
    Главный режиссер:Бертран Бонелло

    Актеры
    Гаспар Ульель, Жереми Ренье, Луи Гаррель, Леа Сейду, Амира Касар, Эмилин Валаде, Хельмут Бергер, Миша Лекот, Валерия Бруни-Тедески, Валери Донзелли

    Сюжет фильма

    Конец 1960-х, модный дом молодого Ива Сен-Лорана процветает, а сам дизайнер переживает пьянящий успех и отчаяние. На богемных парижских вечеринках, в Марракеше, в полотнах Уорхолла и книгах Пруста Сен-Лоран ищет и ответы на вопросы, и вдохновение. Но лишь такому утонченному режиссеру, как Бертран Бонелло, удается не только рассказать историю уникального модельера, но и создать портрет эпохи с её диалогами, непомерными развлечениями и умением любой ценой проживать каждый момент жизни красиво.

    Снималось в:Франция, Бельгия
    Киностудия:Arte France, Arte France CinГ©ma, Canal+ fr, Centre National de la Cin?matographie (CNC), Cin?, EuropaCorp, Films Distribution, La Banque Postale Image 7, Mandarin Films, Orange Studio, Procirep, R?gion Ile-de-France, Scope Pictures, SofiTVCinГ©
    Время просмотра:02:30:26
    Перевод текста:Дублированный iTunes
    Файл
    Кодек для видео:AVI (XviD)
    Качество фильма:HDRip (BDRip 720p)
    Информация о видео:720x384 (1.88:1), 24.000 fps, XviD build 73 ~1552 kbps avg, 0.23 bit/pixel
    Информация о звуке:48 kHz, AC3 Dolby Digital, 3/2 (L,C,R,l,r) + LFE ch, ~384.00 kbps avg
    Субтитры:нет
    Семпл
    MediaInfo

    Общее
    Полное имя : S:ФильмыСен-Лоран. Стиль – это я. 2014. HDRip. 2.05 (AleksSin).avi
    Формат : AVI
    Формат/Информация : Audio Video Interleave
    Профиль формата : OpenDML
    Размер файла : 2,05 Гбайт
    Продолжительность : 2 ч. 30 м.
    Общий поток : 1948 Кбит/сек
    Программа кодирования : VirtualDubMod 1.5.10.3 | www.virtualdub-fr.org || (build 2550/release)
    Библиотека кодирования : VirtualDubMod build 2550/release
    Видео
    Идентификатор : 0
    Формат : MPEG-4 Visual
    Профиль формата : Advanced Simple@L5
    Параметр BVOP формата : 1
    Параметр QPel формата : Нет
    Параметр GMC формата : Без точки перехода
    Параметр матрицы формата : Выборочная
    Идентификатор кодека : XVID
    Идентификатор кодека/Подсказка : XviD
    Продолжительность : 2 ч. 30 м.
    Битрейт : 1552 Кбит/сек
    Ширина : 720 пикс.
    Высота : 384 пикс.
    Соотношение сторон : 1,875
    Частота кадров : 24,000 кадр/сек
    Цветовое пространство : YUV
    Подвыборка цветности : 4:2:0
    Битовая глубина : 8 бит
    Тип развёртки : Прогрессивная
    Метод сжатия : С потерями
    Бит/(Пиксели*Кадры) : 0.234
    Размер потока : 1,63 Гбайт (80%)
    Библиотека кодирования : XviD 73
    Аудио
    Идентификатор : 1
    Формат : AC-3
    Формат/Информация : Audio Coding 3
    Расширение режима : CM (complete main)
    Идентификатор кодека : 2000
    Продолжительность : 2 ч. 30 м.
    Вид битрейта : Постоянный
    Битрейт : 384 Кбит/сек
    Каналы : 6 каналов
    Расположение каналов : Front: L C R, Side: L R, LFE
    Частота : 48,0 КГц
    Битовая глубина : 16 бит
    Метод сжатия : С потерями
    Размер потока : 413 Мбайт (20%)
    Выравнивание : Разделение по промежуткам
    Продолжительность промежутка : 42 мс. (1,00 видеокадр)
    Время предзагрузки промежутка : 500 ms

    Скриншоты

    Релиз подготовил:
    Залил: *AleksSin*

    Онлайн видео Сен-Лоран. Стиль – это я


    Размер скачиваемого торрента: 2.05 GB (2197962752 Bytes)

    Сен-Лоран. Стиль – это я/Saint Laurent (2014) HDRip от AleksSin | D | iTunes
    загрузка...
    Рейтинг →
     (голосов: 1, оценка 3/5, голосовать можно 1 раз )

    Другие торренты по теме:

  • Ив Сен Лоран (2014) скачать через торрент бесплатно
  • Ив Сен-Лоран / Yves Saint Laurent (2014) WEBRip
  • Ив Сен-Лоран / Yves Saint Laurent (2014) HDRip | fox-torrents | P скачать через торрент бесплатно
  • Ив Сен-Лоран / Yves Saint Laurent (2014) HDRip | P скачать через торрент бесплатно
  • Ив Сен-Лоран / Yves Saint Laurent (2014) BDRip 720p | P скачать через торрент бесплатно
  • Ив Сен-Лоран / Yves Saint Laurent (2014) DVD5 от New-Team | Лицензия скачать через торрент бесплатно


    • Комментарии (0):

      Информация

      Информация

        Посетители, находящиеся в группе Гости, не могут оставлять комментарии в данной новости.

        ↓ Меню



        ↓ Опрос

        А Вы добавили сайт в закладки?
        Да
        Не


        Top 10 за месяц (Фильмы)