.
Авторизация | Регистрация
Хочешь лучшие торренты? Добавь свой email!
Добавить
» » Суперфорсаж! / Superfast! (2014) WEB-DLRip от AleksSin | D | iTunes скачать торрент бесплатно




    Суперфорсаж! / Superfast! (2014) WEB-DLRip от AleksSin | D | iTunes скачать торрент бесплатно

    Опубликовал: Админ | Дата: 12-04-2015, 01:00 | Просмотров: 173


    Детально о кино
    Русское название:Суперфорсаж!
    Русское название в мировом прокате:Superfast!
    Создали в:2014
    Категория жанра:комедия
    Главный режиссер:Джейсон Фридберг, Аарон Зельцер

    Актеры
    Лили Мирожник, Дэйл Павински, Андреа Наведо, Шантель Вислэвски, Дэниэл Буко, Майкл Флорес, Вероника МакКласки, Гонсало Менендес, Алекс Ашбаух, Дио Джонсон

    Сюжет фильма

    Короли комедии снова в строю. На этот раз объектом пародии стала форсажная франшиза и прочие фильмы о гонках, ограблениях и крутых тачках. Шутки еще смешнее, ирония еще жестче, плотность гэгов — еще выше.

    Снималось в:США
    Киностудия:3 in the Box, Safran Company
    Время просмотра:01:35:14
    Перевод текста:Дублированное iTunes
    Файл
    Кодек для видео:AVI (XviD)
    Качество фильма:WEB-DLRip (Исх. WEB-DL 720p)
    Информация о видео:624x352 (1.77:1), 25 fps, XviD build 73 ~959 kbps avg, 0.17 bit/pixel
    Информация о звуке:48 kHz, MPEG Layer 3, 2 ch, ~128.00 kbps avg
    Субтитры:нет
    Семпл
    MediaInfo

    Общее
    Полное имя : S:ФильмыСуперфорсаж! 2015. WEB-DLRip (AleksSin).avi
    Формат : AVI
    Формат/Информация : Audio Video Interleave
    Размер файла : 747 Мбайт
    Продолжительность : 1 ч. 35 м.
    Общий поток : 1097 Кбит/сек
    Программа кодирования : VirtualDubMod 1.5.10.3 | www.virtualdub-fr.org || (build 2550/release)
    Библиотека кодирования : VirtualDubMod build 2550/release
    Видео
    Идентификатор : 0
    Формат : MPEG-4 Visual
    Профиль формата : Advanced Simple@L5
    Параметр BVOP формата : 1
    Параметр QPel формата : Нет
    Параметр GMC формата : Без точки перехода
    Параметр матрицы формата : Выборочная
    Идентификатор кодека : XVID
    Идентификатор кодека/Подсказка : XviD
    Продолжительность : 1 ч. 35 м.
    Битрейт : 959 Кбит/сек
    Ширина : 624 пикс.
    Высота : 352 пикс.
    Соотношение сторон : 16:9
    Частота кадров : 25,000 кадр/сек
    Цветовое пространство : YUV
    Подвыборка цветности : 4:2:0
    Битовая глубина : 8 бит
    Тип развёртки : Прогрессивная
    Метод сжатия : С потерями
    Бит/(Пиксели*Кадры) : 0.175
    Размер потока : 653 Мбайт (87%)
    Библиотека кодирования : XviD 73
    Аудио
    Идентификатор : 1
    Формат : MPEG Audio
    Версия формата : Version 1
    Профиль формата : Layer 3
    Идентификатор кодека : 55
    Идентификатор кодека/Подсказка : MP3
    Продолжительность : 1 ч. 35 м.
    Вид битрейта : Постоянный
    Битрейт : 128 Кбит/сек
    Каналы : 2 канала
    Частота : 48,0 КГц
    Метод сжатия : С потерями
    Размер потока : 87,2 Мбайт (12%)
    Выравнивание : Соединение по промежуткам
    Продолжительность промежутка : 40 мс. (1,00 видеокадр)
    Время предзагрузки промежутка : 504 ms
    Библиотека кодирования : LAME3.99r
    Залил: *AleksSin*

    Онлайн видео Суперфорсаж!


    Размер скачиваемого торрента: 746.97 MB (783257600 Bytes)


    Суперфорсаж!/Superfast! (2014) WEB-DLRip от AleksSin | D | iTunes
    загрузка...
    Рейтинг →
     (голосов: 1, оценка 5/5, голосовать можно 1 раз )

    Другие торренты по теме:

  • Суперфорсаж! / Superfast! (2015) WEB-DLRip | Чистый звук
  • Суперфорсаж! / Superfast! (2015) WEB-DLRip | iTunes
  • Суперфорсаж! / Superfast! (2015) HDRip-AVC от ExKinoRay | iTunes


    • Комментарии (0):

      Информация

      Информация

        Посетители, находящиеся в группе Гости, не могут оставлять комментарии в данной новости.

        ↓ Меню



        ↓ Опрос

        А Вы добавили сайт в закладки?
        Да
        Не


        Top 10 за месяц (Фильмы)