.
Авторизация | Регистрация
Хочешь лучшие торренты? Добавь свой email!
Добавить
» » Интерстеллар / Interstellar (2014) DVD9 | Custom скачать торрент бесплатно




    Интерстеллар / Interstellar (2014) DVD9 | Custom скачать торрент бесплатно

    Опубликовал: Админ | Дата: 9-04-2015, 17:00 | Просмотров: 280

    Следующий шаг человечества станет величайшим

    Создали в:2014
    Создали в:США, Великобритания, Канада/Paramount Pictures, Warner Bros. Pictures, Legendary Pictures, Syncopy, Lynda Obst Productions
    Категория жанра:Фантастика, драма, приключения
    Главный режиссер:Кристофер Нолан
    Продюсеры:Кристофер Нолан, Линда Обст, Эмма Томас
    Актеры:Мэттью МакКонахи, Энн Хэтэуэй, Джессика Честейн, Маккензи Фой, Майкл Кейн, Дэвид Гяси, Уэс Бентли, Кейси Аффлек, Джон Литгоу, Мэтт Дэймон
    Описание фильма:
    Когда засуха приводит человечество к продовольственному кризису, коллектив исследователей и учёных отправляется сквозь червоточину (которая предположительно соединяет области пространства-времени через большое расстояние) в путешествие, чтобы превзойти прежние ограничения для космических путешествий человека и переселить человечество на другую планету.
    Перевод текста:Дублированныйлицензия
    Язык субтитров:Английский, французский, русский
    Дата мировой премьеры:26 октября 2014
    Дата российской премьеры:6 ноября 2014, Каро-Премьер
    Дата выхода DVD релиза:9 апреля 2015, CP Дистрибуция
    Время просмотра:02:48:53
    Качество фильма видео:DVD9
    Информация о видео:MPEG-2, 720x480@853x480 (NTSC 16:9), ~4715 Кбит/сек
    Информация о звуке 1:AC3 5.1, 448 Кбит/сек Английский - оригинал
    Информация о звуке 2:AC3 5.1, 384 Кбит/сек Французский - дублированный
    Информация о звуке 3:AC3 5.1, 448 Кбит/секРусский - дублированный
    Информация о звуке 4:AC3 5.1, 384 Кбит/сек Английский - описательный
    Доп. материалы:Трейлеры
    DVDInfo:
    Title: Interstellar (2014) DVD9 NTSC
    Size: 7.80 Gb ( 8 176 124,00 KBytes ) - DVD-9
    Enabled regions: 1, 2, 3, 4, 5, 6, 7, 8
    VTS_01 :
    Play Length: 02:48:53+00:00:12+00:00:00
    Video: NTSC 16:9 (720x480) VBR, Auto Letterboxed
    Audio:
    English (Dolby AC3, 6 ch)
    Francais (Dolby AC3, 6 ch)
    Russian (Dolby AC3, 6 ch)
    English (Dolby AC3, 6 ch)
    Subtitles:
    English
    Francais
    Russian
    Russian
    VTS_02 :
    Play Length: 00:07:40+{00:07:40}
    Video: NTSC 16:9 (720x480) VBR, Auto Letterboxed
    Audio:
    Not specified (Dolby AC3, 2 ch)
    English (Dolby AC3, 2 ch)
    Subtitles:
    English
    Francais
    Espanol
    Espanol
    VTS_03 :
    Play Length: 00:00:22
    Video: NTSC 16:9 (720x480) VBR, Auto PanScan
    Audio:
    Not specified (Dolby AC3, 2 ch)
    * Menus Information *
    VIDEO_TS Menu
    Video:
    NTSC 16:9 (720x480) VBR
    Auto PanScan
    Language Unit :
    Title Menu
    VTS_01 Menu
    Video:
    NTSC 16:9 (720x480) VBR
    Auto PanScan
    Audio:
    Not specified (Dolby AC3, 2 ch)
    English Language Unit :
    Root Menu
    VTS_02 Menu
    Video:
    NTSC 4:3 (720x480) VBR
    Auto PanScan, Auto Letterboxed
    Language Unit :
    Root Menu
    VTS_03 Menu
    Video:
    NTSC 4:3 (720x480) VBR
    Auto PanScan, Auto Letterboxed
    Language Unit :
    Root Menu
    MediaInfo:
    Общее
    Полное имя : F:ВидеоInterstellar (2014) DVD9 NTSCVIDEO_TSVTS_01_1.VOB
    Формат : MPEG-PS
    Размер файла : 1024 Мбайт
    Продолжительность : 21 м.
    Режим общего битрейта : Переменный
    Общий поток : 6508 Кбит/сек
    Видео
    Идентификатор : 224 (0xE0)
    Формат : MPEG Video
    Версия формата : Version 2
    Профиль формата : Main@Main
    Параметр BVOP формата : Да
    Параметр матрицы формата : Выборочная
    Параметр GOP формата : Variable
    Продолжительность : 21 м.
    Вид битрейта : Переменный
    Битрейт : 4715 Кбит/сек
    Максимальный битрейт : 7500 Кбит/сек
    Ширина : 720 пикселей
    Высота : 480 пикселей
    Соотношение сторон : 16:9
    Частота кадров : 23,976 кадра/сек
    Стандарт вещания : NTSC
    Цветовое пространство : YUV
    Субдискретизация насыщенности : 4:2:0
    Битовая глубина : 8 бит
    Тип развёртки : Прогрессивная
    Порядок развёртки : 2:3 Pulldown
    Метод сжатия : С потерями
    Бит/(Пиксели*Кадры) : 0.569
    Временной код первого кадра : 00:59:58;00
    Оригинал временного кода : Group of pictures t_head
    Размер потока : 742 Мбайт (72%)
    Аудио #1
    Идентификатор : 189 (0xBD)-128 (0x80)
    Формат : AC-3
    Формат/Информация : Audio Coding 3
    Расширение режима : CM (complete main)
    Параметр Endianness формата : Big
    Режим смешивания : DVD-Video
    Продолжительность : 21 м.
    Вид битрейта : Постоянный
    Битрейт : 448 Кбит/сек
    Каналы : 6 каналов
    Расположение каналов : Front: L C R, Side: L R, LFE
    Частота : 48,0 КГц
    Битовая глубина : 16 бит
    Метод сжатия : С потерями
    Размер потока : 70,5 Мбайт (7%)
    Аудио #2
    Идентификатор : 189 (0xBD)-129 (0x81)
    Формат : AC-3
    Формат/Информация : Audio Coding 3
    Расширение режима : CM (complete main)
    Параметр Endianness формата : Big
    Режим смешивания : DVD-Video
    Продолжительность : 21 м.
    Вид битрейта : Постоянный
    Битрейт : 384 Кбит/сек
    Каналы : 6 каналов
    Расположение каналов : Front: L C R, Side: L R, LFE
    Частота : 48,0 КГц
    Битовая глубина : 16 бит
    Метод сжатия : С потерями
    Размер потока : 60,4 Мбайт (6%)
    Аудио #3
    Идентификатор : 189 (0xBD)-130 (0x82)
    Формат : AC-3
    Формат/Информация : Audio Coding 3
    Расширение режима : CM (complete main)
    Параметр Endianness формата : Big
    Режим смешивания : DVD-Video
    Продолжительность : 21 м.
    Вид битрейта : Постоянный
    Битрейт : 448 Кбит/сек
    Каналы : 6 каналов
    Расположение каналов : Front: L C R, Side: L R, LFE
    Частота : 48,0 КГц
    Битовая глубина : 16 бит
    Метод сжатия : С потерями
    Размер потока : 70,5 Мбайт (7%)
    Аудио #4
    Идентификатор : 189 (0xBD)-131 (0x83)
    Формат : AC-3
    Формат/Информация : Audio Coding 3
    Расширение режима : CM (complete main)
    Параметр Endianness формата : Big
    Режим смешивания : DVD-Video
    Продолжительность : 21 м.
    Вид битрейта : Постоянный
    Битрейт : 384 Кбит/сек
    Каналы : 6 каналов
    Расположение каналов : Front: L C R, Side: L R, LFE
    Частота : 48,0 КГц
    Битовая глубина : 16 бит
    Метод сжатия : С потерями
    Размер потока : 60,4 Мбайт (6%)
    Текст #1
    Идентификатор : 224 (0xE0)-CC3
    Формат : EIA-608
    Режим смешивания, доп. информация : Muxed in Video #1
    Вид битрейта : Постоянный
    Размер потока : 0,00 байт (0%)
    Текст #2
    Идентификатор : 189 (0xBD)-32 (0x20)
    Формат : RLE
    Формат/Информация : Run-length encoding
    Режим смешивания : DVD-Video
    Текст #3
    Идентификатор : 189 (0xBD)-33 (0x21)
    Формат : RLE
    Формат/Информация : Run-length encoding
    Режим смешивания : DVD-Video
    Текст #4
    Идентификатор : 189 (0xBD)-34 (0x22)
    Формат : RLE
    Формат/Информация : Run-length encoding
    Режим смешивания : DVD-Video
    Меню
    Доп. информация:
    Исходником послужил зарубежный DVD9 R2. Испанскую звуковую дорожку заменил на русскую вместе с субтитрами. Меню анимированное на английском языке.
    Использовались программы: MKVExtractGUI2, DVD ReMake Pro, PgcDemux, Adobe PhotoShop, MuxMan, Subtitle Workshop, MaestroSBT, DVDSubEdit.
    Скриншоты меню:

    Скриншоты:

    Залил: Саша 1992

    Онлайн видео Интерстеллар


    Размер скачиваемого торрента: 7.80 GB (8372350976 Bytes)

    Интерстеллар/Interstellar (2014) DVD9 | Custom
    загрузка...
    Рейтинг →
     (голосов: 1, оценка 4/5, голосовать можно 1 раз )

    Другие торренты по теме:

  • Интерстеллар / Interstellar (2014) DCPrip | Тизер
  • Интерстеллар (2014) TS скачать через торрент бесплатно
  • Интерстеллар / Interstellar скачать через торрент бесплатно
  • Интерстеллар / Interstellar (2014) CAMRip
  • Интерстеллар / Interstellar (2014) CAMRip
  • Интерстеллар / Interstellar (2014) CAMRip *PROPER* скачать через торрент бесплатно
  • Интерстеллар / Interstellar (2014) WEBRip 720p | Чистый звук скачать через торрент бесплатно
  • Интерстеллар / Interstellar (2014) HDRip | Чистый звук


    • Комментарии (0):

      Информация

      Информация

        Посетители, находящиеся в группе Гости, не могут оставлять комментарии в данной новости.

        ↓ Меню



        ↓ Опрос

        А Вы добавили сайт в закладки?
        Да
        Не


        Top 10 за месяц (Фильмы)