.
Авторизация | Регистрация
Хочешь лучшие торренты? Добавь свой email!
Добавить
» » Игрок / The Gambler (2014) BDRip 1080p | D, A скачать торрент бесплатно




    Игрок / The Gambler (2014) BDRip 1080p | D, A скачать торрент бесплатно

    Опубликовал: Админ | Дата: 7-04-2015, 19:00 | Просмотров: 206



    Детально о кино
    Русское название: Игрок
    Русское название в мировом прокате: The Gambler
    Создали в: 2014
    Категория жанра:триллер, драма, криминал
    Главный режиссер: Руперт Уайатт

    Актеры
    Марк Уолберг, Джон Гудман, Бри Ларсон, Майкл Кеннет Уильямс, Джессика Лэнг, Гриффин Кливлэнд, Омар Лейва, Энтони Келли, Стив Парк, Эмори Коэн


    Сюжет фильма
    Джим Беннетт — рисковый парень. Днем он — гениальный писатель и отличный преподаватель, ночью — заядлый игрок. Он глубоко увяз в мире, где закон — пустой звук, и однажды ставит на кон все, включая собственную жизнь. Те, кому он должен, опасны, а помочь ему может только тот, кто еще опаснее. Достоин ли второго шанса человек, проигравший самого себя? А, если да, то — во сколько это ему обойдется?



    Снималось в: США
    Время просмотра: 01:50:57
    Перевод текста:Профессиональный(полное дублирование)-Blu-Ray EUR
    Авторский(одноголосый, закадровый)-M.Яроцкий

    Файл
    Качество фильма:BDRip 1080p
    Тип видео: MKV
    Информация о видео: MPEG4/AVC, 15.3 Мбит/сек, 1920х800 (2.40:1), 23.976 кадра/сек
    Информация о звуке 1: AC3, 6 каналов, 640 Кбит/сек |Русский - D | Blu-Ray EUR
    Информация о звуке 2: DTS, 6 каналов, 1509 Кбит/сек |Русский - A | M.Яроцкий (не нормативная лексика)
    Информация о звуке 3: DTS, 6 каналов, 1509 Кбит/сек |Английский
    Субтитры: Русские, украинские, английские
    Навигация по главам: Есть

    MediaInfo:
    Общее
    Уникальный идентификатор : 172073703768035387367694712511456577943 (0x8174309B81C7BCF19E7DA11A799F8997)
    Полное имя : The Gambler. (2014) BDRip 1080p.mkv
    Формат : Matroska
    Версия формата : Version 2
    Размер файла : 15,0 Гбайт
    Продолжительность : 1 ч. 50 м.
    Общий поток : 19,4 Мбит/сек
    Название фильма : The Gambler. 2014
    Дата кодирования : UTC 2015-04-07 13:22:57
    Программа кодирования : mkvmerge v5.8.0 (;No Sleep/Pillow;) built on Sep 2 2012 15:37:04
    Библиотека кодирования : libebml v1.2.3 + libmatroska v1.3.0

    Видео
    Идентификатор : 1
    Формат : AVC
    Формат/Информация : Advanced Video Codec
    Профиль формата : High@L4.1
    Параметр CABAC формата : Да
    Параметр ReFrames формата : 5 кадров
    Идентификатор кодека : V_MPEG4/ISO/AVC
    Продолжительность : 1 ч. 50 м.
    Битрейт : 15,3 Мбит/сек
    Ширина : 1920 пикселей
    Высота : 800 пикселей
    Соотношение сторон : 2,40:1
    Режим частоты кадров : Постоянный
    Частота кадров : 23,976 кадра/сек
    Цветовое пространство : YUV
    Субдискретизация насыщенности : 4:2:0
    Битовая глубина : 8 бит
    Тип развёртки : Прогрессивная
    Бит/(Пиксели*Кадры) : 0.416
    Размер потока : 11,9 Гбайт (79%)
    Заголовок : MrND
    Библиотека кодирования : x264 core 142 r2431+42 c69a006 tMod 8-bit@all X86_64
    Настройки программы : cabac=1/ref=5/deblock=1:-3:-3/analyse=0x3:0x133/me=umh/subme=11/psy=1/fade_compensate=0.00/psy_rd=1.05:0.00/mixed_ref=1/me_range=48/chroma_me=1/trellis=2/8x8dct=1/cqm=0/deadzone=21,11/fast_pskip=0/chroma_qp_offset=-2/threads=18/lookahead_threads=3/sliced_threads=0/nr=0/decimate=0/interlaced=0/bluray_compat=0/constrained_intra=0/fgo=0/bframes=9/b_pyramid=2/b_adapt=2/b_bias=0/direct=3/weightb=1/open_gop=0/weightp=2/keyint=250/keyint_min=23/scenecut=40/intra_refresh=0/rc=crf/mbtree=0/crf=16.0000/qcomp=0.70/qpmin=0:0:0/qpmax=69:69:69/qpstep=4/ip_ratio=1.30/pb_ratio=1.20/aq=3:0.80/aq-sensitivity=10.00/aq-factor=1.00:1.00:1.00/aq2=0/aq3=0
    Язык : English
    Default : Да
    Forced : Нет

    Аудио #1
    Идентификатор : 2
    Формат : AC-3
    Формат/Информация : Audio Coding 3
    Расширение режима : CM (complete main)
    Параметр Endianness формата : Big
    Идентификатор кодека : A_AC3
    Продолжительность : 1 ч. 50 м.
    Вид битрейта : Постоянный
    Битрейт : 640 Кбит/сек
    Каналы : 6 каналов
    Расположение каналов : Front: L C R, Side: L R, LFE
    Частота : 48,0 КГц
    Битовая глубина : 16 бит
    Метод сжатия : С потерями
    Размер потока : 508 Мбайт (3%)
    Заголовок : D | Blu-ray CEE
    Язык : Russian
    Default : Да
    Forced : Нет

    Аудио #2
    Идентификатор : 3
    Формат : DTS
    Формат/Информация : Digital Theater Systems
    Режим : 16
    Параметр Endianness формата : Big
    Идентификатор кодека : A_DTS
    Продолжительность : 1 ч. 50 м.
    Вид битрейта : Постоянный
    Битрейт : 1509 Кбит/сек
    Каналы : 6 каналов
    Расположение каналов : Front: L C R, Side: L R, LFE
    Частота : 48,0 КГц
    Битовая глубина : 24 бит
    Метод сжатия : С потерями
    Размер потока : 1,17 Гбайт (8%)
    Заголовок : A | М.Яроцкий
    Язык : Russian
    Default : Нет
    Forced : Нет

    Аудио #3
    Идентификатор : 4
    Формат : DTS
    Формат/Информация : Digital Theater Systems
    Режим : 16
    Параметр Endianness формата : Big
    Идентификатор кодека : A_DTS
    Продолжительность : 1 ч. 50 м.
    Вид битрейта : Постоянный
    Битрейт : 1509 Кбит/сек
    Каналы : 6 каналов
    Расположение каналов : Front: L C R, Side: L R, LFE
    Частота : 48,0 КГц
    Битовая глубина : 24 бит
    Метод сжатия : С потерями
    Размер потока : 1,17 Гбайт (8%)
    Заголовок : Original
    Язык : English
    Default : Нет
    Forced : Нет

    Текст #1
    Идентификатор : 5
    Формат : UTF-8
    Идентификатор кодека : S_TEXT/UTF8
    Идентификатор кодека/Информация : UTF-8 Plain Text
    Заголовок : Full
    Язык : Russian
    Default : Нет
    Forced : Нет

    Текст #2
    Идентификатор : 6
    Формат : UTF-8
    Идентификатор кодека : S_TEXT/UTF8
    Идентификатор кодека/Информация : UTF-8 Plain Text
    Заголовок : Full
    Язык : Ukrainian
    Default : Нет
    Forced : Нет

    Текст #3
    Идентификатор : 7
    Формат : UTF-8
    Идентификатор кодека : S_TEXT/UTF8
    Идентификатор кодека/Информация : UTF-8 Plain Text
    Заголовок : Full
    Язык : English
    Default : Нет
    Forced : Нет

    Меню
    00:00:00.000 : en:00:00:00.000
    00:08:21.376 : en:00:08:21.376
    00:16:46.422 : en:00:16:46.422
    00:25:22.020 : en:00:25:22.020
    00:29:16.254 : en:00:29:16.254
    00:34:09.422 : en:00:34:09.422
    00:45:08.456 : en:00:45:08.456
    00:51:00.516 : en:00:51:00.516
    00:59:08.336 : en:00:59:08.336
    01:06:22.729 : en:01:06:22.729
    01:12:39.230 : en:01:12:39.230
    01:21:58.664 : en:01:21:58.664
    01:24:17.094 : en:01:24:17.094
    01:31:11.758 : en:01:31:11.758
    01:35:35.563 : en:01:35:35.563
    01:46:04.441 : en:01:46:04.441



    Релиз подготовил:
    Размер скачиваемого торрента: 15.01 GB (16113935079 Bytes)

    Игрок/The Gambler (2014) BDRip 1080p | D, A
    загрузка...
    Рейтинг →
     (голосов: 1, оценка 5/5, голосовать можно 1 раз )

    Другие торренты по теме:

  • Тайный игрок / Shadow Dancer (2012) BDRip 720p от KinoFan | L1
  • Игрок 786 / Khiladi 786 (2012) HDRip от ICG Generalfilm
  • Игрок №1 / Khiladi No 1 (1997) SATRip от Files-x
  • Легендарный игрок Тэцуя / Gambler Densetsu Tetsuya (2000) DVDRip | AniDuB скачать через торрент бесплатно
  • Тайный игрок / Shadow Dancer (2012) HDRip | P2 скачать через торрент бесплатно
  • Тайный игрок / Shadow Dancer (2012) BDRip 720p от CINEMANIA | P2, L1
  • Тайный игрок / Shadow Dancer (2012) BDRip 1080p от CINEMANIA | P2, L1
  • Тайный игрок / Shadow Dancer (2012) BDRip-AVC | iPad | P2 скачать через торрент бесплатно


    • Комментарии (0):

      Информация

      Информация

        Посетители, находящиеся в группе Гости, не могут оставлять комментарии в данной новости.

        ↓ Меню



        ↓ Опрос

        А Вы добавили сайт в закладки?
        Да
        Не


        Top 10 за месяц (Фильмы)