.
Авторизация | Регистрация
Хочешь лучшие торренты? Добавь свой email!
Добавить
» » Бездна / The Abyss (1989) HDTV 1080i | P, A | Расширенная версия скачать торрент бесплатно




    Бездна / The Abyss (1989) HDTV 1080i | P, A | Расширенная версия скачать торрент бесплатно

    Опубликовал: Админ | Дата: 5-04-2015, 22:00 | Просмотров: 270


    Детально о кино
    Русское название:Бездна
    Русское название в мировом прокате:The Abyss
    Создали в:1989
    Категория жанра:фантастика, триллер, драма, приключения
    Главный режиссер:Джеймс Кэмерон

    Актеры
    Эд Харрис, Мэри Элизабет Мастрантонио, Майкл Бин, Лео Бёрместер, Тодд Графф, Джон Бедфорд Ллойд, Дж. К. Куин, Кимберли Скотт, Капитан Кидд Брюер мл., Джордж Роберт Клек

    Сюжет фильма

    Атомная подводная лодка Монтана ВМФ США с ядерным оружием на борту терпит крушение на огромной глубине. Министерство флота просит помощи у специалистов подводной исследовательской станции, работающей неподалеку от места аварии субмарины.
    При поддержке четырех военных разведчиков исследователи должны выяснить возможную причину трагедии и нейтрализовать ядерные боеголовки. Но в океанской бездне им предстоит столкнуться с неведомым…
    Снималось в:США

    Время просмотра:02:43:49
    Перевод текста:MVO НТВ, MVO НТВ+Киномания, DVO Премьер Видео Фильм (1 канал) + Гаврилов, Авторский (одноголосый закадровый) Андрей Гаврилов, Авторский (одноголосый закадровый) Юрий Живов
    Файл
    Кодек для видео:h.264
    Качество фильма:HDTV 1080i
    Информация о видео:1920x1080, 16:9, ~8568 Kbps, ~25 FPS 0.083 bit/pixel
    Audio #1:Русский (AC3. 2ch,16bit, 48 kHz, 224 kbps)/MVO НТВ
    Audio #2:Русский (AC3. 6ch,16bit, 48 kHz, 448 kbps)/MVO Киномания+НТВ
    Audio #3:Русский (AC3. 6ch,16bit, 48 kHz, 448 kbps)/DVO Премьер Видео Фильм (1 канал)+Гаврилов
    Audio #4:Русский (AC3. 2ch,16bit, 48 kHz, 192 kbps)/Авторский (одноголосый закадровый) Андрей Гаврилов
    Audio #5:Русский (AC3. 2ch,16bit, 48 kHz, 192 kbps)/Авторский (одноголосый закадровый) Юрий Живов
    Audio #6:German (AC3 6 ch,16bit, 48 kHz, 384 kbps)
    Audio #7:English (AC3 6 ch,16bit, 48 kHz, 384 kbps)
    Субтитры:Немецкие (на расширенные места)
    MediaInfo
    Общее
    Уникальный идентификатор : 29449581695509224471591486400441127430 (0x1627C87ACB91C06B8C68D33B4DC09206)
    Полное имя : Abyss.1989.x264.HDTV.1080i.Special.Edition.mkv
    Формат : Matroska
    Версия формата : Version 4/Version 2
    Размер файла : 12,4 Гбайт
    Продолжительность : 2 ч. 43 м.
    Общий поток : 10,8 Мбит/сек
    Дата кодирования : UTC 2015-04-05 11:28:57
    Программа кодирования : mkvmerge v7.8.0 (;River Man;) 64bit
    Библиотека кодирования : libebml v1.3.1 + libmatroska v1.4.2
    DURATION : 02:43:49.728000000
    NUMBER_OF_FRAMES : 307179
    NUMBER_OF_BYTES : 275232384
    _STATISTICS_WRITING_APP : mkvmerge v7.8.0 (;River Man;) 64bit
    _STATISTICS_WRITING_DATE_UTC : 2015-04-05 11:28:57
    _STATISTICS_TAGS : BPS DURATION NUMBER_OF_FRAMES NUMBER_OF_BYTES
    Видео
    Идентификатор : 1
    Формат : AVC
    Формат/Информация : Advanced Video Codec
    Профиль формата : High@L4.0
    Параметр CABAC формата : Да
    Параметр ReFrames формата : 3 кадра
    Параметр GOP формата : M=4, N=28
    Идентификатор кодека : V_MPEG4/ISO/AVC
    Продолжительность : 2 ч. 43 м.
    Битрейт : 8570 Кбит/сек
    Ширина : 1920 пикселей
    Высота : 1080 пикселей
    Соотношение сторон : 16:9
    Режим частоты кадров : Постоянный
    Частота кадров : 25,000 кадров/сек
    Стандарт вещания : Component
    Цветовое пространство : YUV
    Субдискретизация насыщенности : 4:2:0
    Битовая глубина : 8 бит
    Тип развёртки : Чересстрочная
    Порядок развёртки : Верхнее поле первое
    Бит/(Пиксели*Кадры) : 0.165
    Размер потока : 9,81 Гбайт (79%)
    Default : Да
    Forced : Нет
    Основные цвета : BT.709
    Характеристики трансфера : BT.709
    Коэффициенты матрицы : BT.709
    colour_range : Limited
    Аудио #1
    Идентификатор : 2
    Формат : AC-3
    Формат/Информация : Audio Coding 3
    Расширение режима : CM (complete main)
    Параметр Endianness формата : Big
    Идентификатор кодека : A_AC3
    Продолжительность : 2 ч. 43 м.
    Вид битрейта : Постоянный
    Битрейт : 224 Кбит/сек
    Каналы : 2 канала
    Расположение каналов : Front: L R
    Частота : 48,0 КГц
    Битовая глубина : 16 бит
    Метод сжатия : С потерями
    Размер потока : 262 Мбайт (2%)
    Заголовок : MVO НТВ
    Язык : Russian
    Default : Да
    Forced : Нет
    Аудио #2
    Идентификатор : 3
    Формат : AC-3
    Формат/Информация : Audio Coding 3
    Расширение режима : CM (complete main)
    Параметр Endianness формата : Big
    Идентификатор кодека : A_AC3
    Продолжительность : 2 ч. 43 м.
    Вид битрейта : Постоянный
    Битрейт : 448 Кбит/сек
    Каналы : 6 каналов
    Расположение каналов : Front: L C R, Side: L R, LFE
    Частота : 48,0 КГц
    Битовая глубина : 16 бит
    Метод сжатия : С потерями
    Размер потока : 525 Мбайт (4%)
    Заголовок : MVO Киномания+НТВ
    Язык : Russian
    Default : Нет
    Forced : Нет
    Аудио #3
    Идентификатор : 4
    Формат : AC-3
    Формат/Информация : Audio Coding 3
    Расширение режима : CM (complete main)
    Параметр Endianness формата : Big
    Идентификатор кодека : A_AC3
    Продолжительность : 2 ч. 43 м.
    Вид битрейта : Постоянный
    Битрейт : 192 Кбит/сек
    Каналы : 2 канала
    Расположение каналов : Front: L R
    Частота : 48,0 КГц
    Битовая глубина : 16 бит
    Метод сжатия : С потерями
    Размер потока : 225 Мбайт (2%)
    Заголовок : DVO Премьер Видео Фильм (1 канал)
    Язык : Russian
    Default : Нет
    Forced : Нет
    Аудио #4
    Идентификатор : 5
    Формат : AC-3
    Формат/Информация : Audio Coding 3
    Расширение режима : CM (complete main)
    Параметр Endianness формата : Big
    Идентификатор кодека : A_AC3
    Продолжительность : 2 ч. 43 м.
    Вид битрейта : Постоянный
    Битрейт : 192 Кбит/сек
    Каналы : 2 канала
    Расположение каналов : Front: L R
    Частота : 48,0 КГц
    Битовая глубина : 16 бит
    Метод сжатия : С потерями
    Размер потока : 225 Мбайт (2%)
    Заголовок : Gavrilov
    Язык : Russian
    Default : Нет
    Forced : Нет
    Аудио #5
    Идентификатор : 6
    Формат : AC-3
    Формат/Информация : Audio Coding 3
    Расширение режима : CM (complete main)
    Параметр Endianness формата : Big
    Идентификатор кодека : A_AC3
    Продолжительность : 2 ч. 43 м.
    Вид битрейта : Постоянный
    Битрейт : 192 Кбит/сек
    Каналы : 2 канала
    Расположение каналов : Front: L R
    Частота : 48,0 КГц
    Битовая глубина : 16 бит
    Метод сжатия : С потерями
    Размер потока : 225 Мбайт (2%)
    Заголовок : Givov
    Язык : Russian
    Default : Нет
    Forced : Нет
    Аудио #6
    Идентификатор : 7
    Формат : AC-3
    Формат/Информация : Audio Coding 3
    Расширение режима : CM (complete main)
    Параметр Endianness формата : Big
    Идентификатор кодека : A_AC3
    Продолжительность : 2 ч. 43 м.
    Вид битрейта : Постоянный
    Битрейт : 384 Кбит/сек
    Каналы : 6 каналов
    Расположение каналов : Front: L C R, Side: L R, LFE
    Частота : 48,0 КГц
    Битовая глубина : 16 бит
    Метод сжатия : С потерями
    Задержка видео : 9 мс.
    Размер потока : 450 Мбайт (4%)
    Язык : German
    Default : Нет
    Forced : Нет
    Аудио #7
    Идентификатор : 8
    Формат : AC-3
    Формат/Информация : Audio Coding 3
    Расширение режима : CM (complete main)
    Параметр Endianness формата : Big
    Идентификатор кодека : A_AC3
    Продолжительность : 2 ч. 43 м.
    Вид битрейта : Постоянный
    Битрейт : 384 Кбит/сек
    Каналы : 6 каналов
    Расположение каналов : Front: L C R, Side: L R, LFE
    Частота : 48,0 КГц
    Битовая глубина : 16 бит
    Метод сжатия : С потерями
    Задержка видео : 116 мс.
    Размер потока : 450 Мбайт (4%)
    Язык : English
    Default : Нет
    Forced : Нет
    Текст
    Идентификатор : 9
    Формат : UTF-8
    Идентификатор кодека : S_TEXT/UTF8
    Идентификатор кодека/Информация : UTF-8 Plain Text
    Default : Нет
    Forced : Нет

    Скриншоты

    Залил: Unread

    Онлайн видео Бездна


    Размер скачиваемого торрента: 12.36 GB (13270684684 Bytes)

    Бездна/The Abyss (1989) HDTV 1080i | P, A | Расширенная версия
    загрузка...
    Рейтинг →
     (голосов: 1, оценка 3/5, голосовать можно 1 раз )

    Другие торренты по теме:

  • Сборник - Vip 200 Бездна Хитов. Шансон (2013) МР3
  • Сборник - Дискотека Бездна Original 2013 50x50 (2013) MP3
  • VA - Дискотека Бездна Original Зарубежная (2013) mp3
  • Сборник - Блатная Бездна Exclusive 9000 (2013) MP3
  • Бездна / The Abyss (1989) DVDRip-AVC | P, А | Специальное Издание / Special Edition
  • Голубая бездна / Le Grand bleu (1988) BDRip-AVC от MediaClub
  • Бездна: Призраки Эдема / Abyss: The Wraiths of Eden CE (2012) PC
  • Сборник - Блатное радио Шансон Бездна Exclusive (2013) MP3


    • Комментарии (0):

      Информация

      Информация

        Посетители, находящиеся в группе Гости, не могут оставлять комментарии в данной новости.

        ↓ Меню



        ↓ Опрос

        А Вы добавили сайт в закладки?
        Да
        Не


        Top 10 за месяц (Фильмы)