.
Авторизация | Регистрация
Хочешь лучшие торренты? Добавь свой email!
Добавить
» » Форсаж 7 / Furious 7 (2015) TS от ColdFilm | L2 скачать торрент бесплатно




    Форсаж 7 / Furious 7 (2015) TS от ColdFilm | L2 скачать торрент бесплатно

    Опубликовал: Админ | Дата: 5-04-2015, 21:00 | Просмотров: 276


    Форсаж 7/Furious 7


    Создали в: США
    Создали в: 2015 г.
    Категория жанра: боевик, триллер, криминал
    Время просмотра: 02:06:2
    Мировая премьера: 16 марта 2015
    Российская премьера: 9 апреля 2015
    Перевод текста: Любительский (двухголосый, закадровый) ColdFilm
    Главный режиссер: Джеймс Ван/James Wan


    Актеры
    Вин Дизель, Пол Уокер, Дуэйн Джонсон, Джейсон Стэйтем, Мишель Родригес, Джордана Брюстер, Тайриз Гибсон, Лудакрис, Эльза Патаки, Лукас Блэк

    Описание: Они покорили Токио и Рио, Лос-Анджелес и Лондон. Но мир больше не играет по их правилам. Зной арабских пустынь, неприлично высокие небоскребы, миллионы долларов на колесах и очень, очень знаменитый злодей. Скорость не знает границ.

    Качество фильма видео: TS
    Контейнер: AVI
    Информация о видео кодек: XviD
    Информация о звуке кодек: MP3
    Информация о видео: 700 Кбит/сек, 640x304, 25,000 кадров/сек, 0,144 Бит/(Пиксели*Кадры)
    Информация о звуке: 128 Кбит/сек, 2 канала, 48,0 КГц
    Субтитры подготовлены: отсутствуют
    Рецензия

    Грехи Англии настигли их, и дальше остается только бороться
    Было интересно посмотреть, как все таки в фильме обыграют трагическую смерть Уокера, и как себя покажет при этом последняя часть. Ведь будем откровенны сама серия не ровная. И при показались трейлеры слишком насыщенные, ведь все помним фильмы в которых вся динамика показана на стадии пред показа. Я настроил себя на то, что я не буду разочарован на том, что в фильме увидим слишком много семейного пафоса, так же предсказуемому сюжету, и разумеется законы физики тоже отбросим. Ожидал от фильма бодрое кино, с хорошей динамикой..
    Декард Шоу — старший брат, который намерен отомстить Доминику и компании за младшего брата, он — призрак, который умеет скрываться годами, и его возможно найти, только если он сам этого захочет. Однако есть план, как все таки отыскать его, чтобы уравнять шансы и противостоять ему на равных. Ведь ранее он уже убил Хана и способен еще забрать многих.
    Я перечислил все то, что меня не должно было разочаровать оно все было, но про некоторые аспекты я забыл. Все таки неубиваемость героев порой зашкаливает, драма мне тоже не пришлась по душе, пожалуй законы физики я внес в список исключений но местами они давали о себе знать, но в целом ведь это не критично.
    По сюжету, то фильм очень живо начинает развивается, и при этом местами он теряет динамику, ведь хронометраж не маленький и продержать так тяжело. Но по-сути больше половины фильма идет драйв, сюжет действительно местами излишне банален. Ну и как-то персонажи местами ну совсем не последовательны.
    По актерам, Вин Дизель — меняются названия Форсажей, но совсем не меняется он, с одной стороны однотипность — залог успеха, но на мой взгляд, что это не много скучно. Мне больше по-душе персонажи, которые развиваются. Пол Уокер — куда бодрее играл, и он запомнился куда больше, чем Вин, да и мне его персонаж был и ранее более интересным. Джейсон Стэйтем — вот у него вполне четкая и адекватная мотивация, как для злодея. Да, она простая, как двери, но при этом она здорово работающая, и здесь в полную показали то, что Джейсон умеет делать. Мне его персонаж понравился.
    Эффекты, в фильме понравились боевые постановки, ведь по-сути их не показывали в промо, и действительно бои смотрелись эффекты, пара запоминающихся моментов.
    Как итог к фильму, то Форсаж 7 — добротное развлекательное кино, от которого абсолютно не нужно ждать ничего особенного в плане серьезности и непредсказуемости. Будет ли следующая часть? Не знаю, все таки не плохая концовка, но что-то подсказывает, что Universal не закончит на этом, и будет держаться за одну из не многих успешных серий своих. Жаль Пола, но его мы дальше точно не увидим…
    Рекомендую к просмотру тем, кто ожидает увидеть развлекательное кино, и не ждет ничего серьезного от фильма.
    9 из 10


    Media Info

    Общее
    Формат : AVI
    Формат/Информация : Audio Video Interleave
    Размер файла : 759 Мбайт
    Продолжительность : 2 ч. 6 м.
    Общий поток : 838 Кбит/сек
    Программа кодирования : VirtualDubMod 1.5.10.2 (build 2540/release)
    Библиотека кодирования : VirtualDub build 35491/release
    Видео
    Идентификатор : 0
    Формат : MPEG-4 Visual
    Профиль формата : Advanced Simple@L5
    Параметр BVOP формата : 2
    Параметр QPel формата : Нет
    Параметр GMC формата : Без точки перехода
    Параметр матрицы формата : Default (H.263)
    Режим смешивания : Сжатый битовый поток
    Идентификатор кодека : XVID
    Идентификатор кодека/Подсказка : XviD
    Продолжительность : 2 ч. 6 м.
    Битрейт : 700 Кбит/сек
    Ширина : 640 пикселей
    Высота : 304 пикселя
    Соотношение сторон : 2,105
    Частота кадров : 25,000 кадров/сек
    Цветовое пространство : YUV
    Субдискретизация насыщенности : 4:2:0
    Битовая глубина : 8 бит
    Тип развёртки : Прогрессивная
    Метод сжатия : С потерями
    Бит/(Пиксели*Кадры) : 0.144
    Размер потока : 635 Мбайт (84%)
    Библиотека кодирования : XviD 73
    Аудио
    Идентификатор : 1
    Формат : MPEG Audio
    Версия формата : Version 1
    Профиль формата : Layer 3
    Режим : Joint stereo
    Расширение режима : MS Stereo
    Идентификатор кодека : 55
    Идентификатор кодека/Подсказка : MP3
    Продолжительность : 2 ч. 6 м.
    Вид битрейта : Постоянный
    Битрейт : 128 Кбит/сек
    Каналы : 2 канала
    Частота : 48,0 КГц
    Метод сжатия : С потерями
    Размер потока : 116 Мбайт (15%)
    Выравнивание : Разделение по промежуткам
    Продолжительность промежутка : 40 мс. (1,00 видеокадр)
    Время предзагрузки промежутка : 500 мс.

    Скриншоты



    Залил: nbdjod

    Онлайн видео Форсаж 7


    Размер скачиваемого торрента: 759.27 MB (796155516 Bytes)

    Форсаж 7/Furious 7 (2015) TS от ColdFilm | L2
    загрузка...
    Рейтинг →
     (голосов: 1, оценка 5/5, голосовать можно 1 раз )

    Другие торренты по теме:

  • Форсаж 7 / Furious 7 (2015) HD 1080p | Трейлер скачать через торрент бесплатно
  • Форсаж 7 / Furious 7 (2015) TS от ColdFilm | L2
  • Форсаж 7 / Furious 7 (2015) TS от ColdFilm | L2
  • Форсаж 7 / Furious 7 (2015) TS | D
  • Форсаж 7 / Furious 7 (2015) TS | D
  • Форсаж 7 / Furious 7 (2015) TS *PROPER* | D
  • Форсаж 7 / Furious 7 (2015) HDTVRip | Звук с CAMRip
  • Форсаж 7 / Furious 7 (2015) WEBRip | Чистый звук


    • Комментарии (0):

      Информация

      Информация

        Посетители, находящиеся в группе Гости, не могут оставлять комментарии в данной новости.

        ↓ Меню



        ↓ Опрос

        А Вы добавили сайт в закладки?
        Да
        Не


        Top 10 за месяц (Фильмы)