.
Авторизация | Регистрация
Хочешь лучшие торренты? Добавь свой email!
Добавить




Дикая / Wild (2014) HDRip-AVC | L2 скачать торрент бесплатно

Опубликовал: Админ | Дата: 25-03-2015, 22:00 | Просмотров: 236


Детально о кино
Русское название:Дикая
Русское название в мировом прокате:Wild
Создали в:2014
Категория жанра:Драма, биография
Главный режиссер:Жан-Марк Валле/Jean-Marc Vall?e

Актеры
Риз Уизерспун, Лора Дерн, Томас Садоски, Гэби Хоффманн, Кевин О. Ранкин, Брайан Ван Холт, У. Эрл Браун...

Сюжет фильма

В центре сюжета Шерил Стрэйд, раздавленная неудавшимся браком и смертью матери и потерявшая всякую надежду на счастье женщина, отправляется в пешее странствие по территории Pacific Crest Trail — маршруту по наиболее высоким участкам хребта Сьерра-Невада и Каскадных гор. Испытания, выпавшие в этом опасном одиночном путешествии на долю героини, неминуемо исцеляют ее от душевных страданий, но процесс этот будет отнюдь не безболезненным.

Снималось в:США
Киностудия:Fox Searchlight Pictures, Pacific Standard
Время просмотра:01:55:36
Перевод текста:Любительский (двухголосый)Savetig Studios
Файл
Кодек для видео:MPEG-4 AVC (MKV)
Качество фильма:HDRip-AVC
Информация о видео:AVC, 1024x432, 2000 Kbps
Информация о звуке:Rus, AC3, 192 kbps (2 ch), Eng, AC3, 448 kbps (6 ch)
Субтитры:Rus, Eng, (SRT)

Скриншоты
MediaInfo
General
Unique ID : 209088719867560003814550018077402814284 (0x9D4D05CD3838B105A2A2F9967F7B574C)
Complete name : G:ДИСК 21.ФИЛЬМЫДикая Wild (2014)Wild (2014) HDRip-AVC.mkv
Format : Matroska
Format version : Version 4/Version 2
File size : 2.13 GiB
Duration : 1h 55mn
Overall bit rate : 2 642 Kbps
Movie name : RARBG.COM - Muck.2015.720p.BluRay.x264.DD5.1-RARBG
Encoded date : UTC 2015-03-25 16:12:52
Writing application : mkvmerge v7.7.0 (;Six Voices;) 64bit built on Feb 28 2015 23:39:33
Writing library : libebml v1.3.1 + libmatroska v1.4.2
_STATISTICS_WRITING_APP : mkvmerge v7.7.0 (;Six Voices;) 64bit built on Feb 28 2015 23:39:33
_STATISTICS_WRITING_DATE_UTC : 2015-03-25 16:12:52
_STATISTICS_TAGS : BPS DURATION NUMBER_OF_FRAMES NUMBER_OF_BYTES
DURATION : 01:55:36.960000000
NUMBER_OF_FRAMES : 216780
NUMBER_OF_BYTES : 388469760
Video
ID : 1
Format : AVC
Format/Info : Advanced Video Codec
Format profile : High@L4.1
Format settings, CABAC : Yes
Format settings, ReFrames : 10 frames
Codec ID : V_MPEG4/ISO/AVC
Duration : 1h 55mn
Bit rate : 2 000 Kbps
Width : 1 024 pixels
Height : 432 pixels
Display aspect ratio : 2.40:1
Frame rate mode : Constant
Frame rate : 23.976 fps
Color space : YUV
Chroma subsampling : 4:2:0
Bit depth : 8 bits
Scan type : Progressive
Bits/(Pixel*Frame) : 0.189
Stream size : 1.57 GiB (74%)
Title : Release by АРХАНГЕЛ
Writing library : x264 core 130 r2273 b3065e6
Encoding settings : cabac=1/ref=10/deblock=1:-3:-3/analyse=0x3:0x113/me=umh/subme=8/psy=1/psy_rd=1.00:0.00/mixed_ref=1/me_range=32/chroma_me=1/trellis=2/8x8dct=1/cqm=0/deadzone=21,11/fast_pskip=0/chroma_qp_offset=-2/threads=6/lookahead_threads=3/sliced_threads=0/nr=0/decimate=1/interlaced=0/bluray_compat=0/constrained_intra=0/bframes=10/b_pyramid=2/b_adapt=2/b_bias=0/direct=3/weightb=1/open_gop=0/weightp=2/keyint=240/keyint_min=23/scenecut=40/intra_refresh=0/rc_lookahead=40/rc=2pass/mbtree=1/bitrate=2000/ratetol=1.0/qcomp=0.60/qpmin=0/qpmax=69/qpstep=4/cplxblur=20.0/qblur=0.5/ip_ratio=1.40/aq=1:1.00
Language : English
Default : Yes
Forced : No
Audio #1
ID : 2
Format : AC-3
Format/Info : Audio Coding 3
Mode extension : CM (complete main)
Format settings, Endianness : Big
Codec ID : A_AC3
Duration : 1h 55mn
Bit rate mode : Constant
Bit rate : 192 Kbps
Channel(s) : 2 channels
Channel positions : Front: L R
Sampling rate : 48.0 KHz
Bit depth : 16 bits
Compression mode : Lossy
Stream size : 159 MiB (7%)
Title : Savetig Studios
Language : Russian
Default : Yes
Forced : No
Audio #2
ID : 3
Format : AC-3
Format/Info : Audio Coding 3
Mode extension : CM (complete main)
Format settings, Endianness : Big
Codec ID : A_AC3
Duration : 1h 55mn
Bit rate mode : Constant
Bit rate : 448 Kbps
Channel(s) : 6 channels
Channel positions : Front: L C R, Side: L R, LFE
Sampling rate : 48.0 KHz
Bit depth : 16 bits
Compression mode : Lossy
Stream size : 370 MiB (17%)
Language : English
Default : No
Forced : No
Text #1
ID : 4
Format : UTF-8
Codec ID : S_TEXT/UTF8
Codec ID/Info : UTF-8 Plain Text
Language : Russian
Default : No
Forced : No
Text #2
ID : 5
Format : UTF-8
Codec ID : S_TEXT/UTF8
Codec ID/Info : UTF-8 Plain Text
Language : English
Default : No
Forced : No
Text #3
ID : 6
Format : UTF-8
Codec ID : S_TEXT/UTF8
Codec ID/Info : UTF-8 Plain Text
Title : SDH
Language : English
Default : No
Forced : No
Menu
00:00:00.000 : en:00:00:00.000
00:02:57.177 : en:00:02:57.177
00:05:48.306 : en:00:05:48.306
00:09:36.910 : en:00:09:36.910
00:12:02.013 : en:00:12:02.013
00:14:56.729 : en:00:14:56.729
00:19:38.344 : en:00:19:38.344
00:22:42.319 : en:00:22:42.319
00:26:09.443 : en:00:26:09.443
00:31:03.987 : en:00:31:03.987
00:33:42.646 : en:00:33:42.646
00:35:58.990 : en:00:35:58.990
00:40:35.600 : en:00:40:35.600
00:44:04.976 : en:00:44:04.976
00:47:38.814 : en:00:47:38.814
00:51:52.026 : en:00:51:52.026
00:54:43.071 : en:00:54:43.071
00:58:57.617 : en:00:58:57.617
01:02:13.438 : en:01:02:13.438
01:04:54.182 : en:01:04:54.182
01:07:52.402 : en:01:07:52.402
01:11:53.184 : en:01:11:53.184
01:15:15.136 : en:01:15:15.136
01:18:05.723 : en:01:18:05.723
01:20:57.936 : en:01:20:57.936
01:23:13.280 : en:01:23:13.280
01:26:39.611 : en:01:26:39.611
01:29:24.401 : en:01:29:24.401
01:32:09.149 : en:01:32:09.149
01:34:41.175 : en:01:34:41.175
01:36:37.458 : en:01:36:37.458
01:38:04.587 : en:01:38:04.587
01:41:03.182 : en:01:41:03.182
01:43:11.102 : en:01:43:11.102
01:47:12.343 : en:01:47:12.343
01:50:33.001 : en:01:50:33.001

Релиз подготовил:
Размер скачиваемого торрента: 2.13 GB (2290690097 Bytes)

Дикая/Wild (2014) HDRip-AVC | L2
загрузка...
Рейтинг →
 (голосов: 1, оценка 5/5, голосовать можно 1 раз )

Другие торренты по теме:

  • Дикая-дикая планета / I criminali della galassia / 1965 / ЛО / DVDRip
  • Дикая планета / La planete sauvage (1973) BDRip | P
  • Дикая природа / Running Wild (1998) DVDRip от olegek70 | P
  • Дикая орхидея / Wild Orchid (1989) DVDRip | P
  • Дикая семерка / Wild Seven (2006) DVDRip от Киномагия | P2
  • BBC: Дикая Аравия / BBC: Wild Arabia (2013) HDTVRip-AVC от Тorrent-Хzona
  • Дикая Банда / The Wild Bunch (1969) BDRip-AVC от Torrent-Xzona
  • Дикая штучка / Something Wild (1986) BDRip-AVC от MediaClub | D, P2, A


    • Комментарии (0):

      Информация

      Информация

        Посетители, находящиеся в группе Гости, не могут оставлять комментарии в данной новости.

        ↓ Меню



        ↓ Опрос

        А Вы добавили сайт в закладки?
        Да
        Не


        Top 10 за месяц (Фильмы)