.
Авторизация | Регистрация
Хочешь лучшие торренты? Добавь свой email!
Добавить
» » Восставший из ада 2 / Hellbound: Hellraiser II (1988) DVD9 скачать торрент бесплатно




    Восставший из ада 2 / Hellbound: Hellraiser II (1988) DVD9 скачать торрент бесплатно

    Опубликовал: Админ | Дата: 24-03-2015, 16:00 | Просмотров: 136


    Детально о кино
    Русское название:Восставший из ада 2
    Русское название в мировом прокате:Hellbound: Hellraiser II
    Создали в:1988
    Категория жанра:ужасы, триллер
    Главный режиссер:Тони Рэндел

    Актеры
    Эшли Лоуренс, Имоджен Бурман, Кеннет Крэнэм, Уильям Хоуп, Даг Брэдли, Клэр Хиггинс, Дебора Джоэль, Энгус МакИннес, Оливер Смит, Шон Чэпман

    Сюжет фильма

    В наш мир возвращается мачеха Кристины Джулия, сгинувшая в геенне огненной в финале первой части фильма. Для восстановления своего физического облика ей приходится использовать те же малоприглядные средства, что в свое время и Фрэнку.
    В это же время Кристина, содержащаяся в психиатрической лечебнице, решает спасти своего томящегося в потусторонней неволе отца, для чего ей снова необходимо проникнуть за ту не всегда видимую и не всегда прочную грань, которая отделяет мир живых от мира не очень живых…


    лицам до 17 лет обязательно присутствие взрослого
    Снималось в:Великобритания, США
    Киностудия:Film Futures, New World Pictures, Troopstar
    Время просмотра:95 мин./01:35
    Перевод текста 1:профессиональный (многоголосый, закадровый)
    Перевод текста 2:авторский (одноголосый, закадровый)
    Файл
    Кодек для видео:MPEG2
    Качество фильма:DVD9West Video
    Информация о видео:PAL 16:9 (720x576@1024x576) VBR 7650 Kbps, 25.000 fps
    Информация о звуке 1:Dolby AC3, 6 ch, 48.0 KHz, 384 Kbps(русский)
    Информация о звуке 2:Dolby AC3, 6 ch, 48.0 KHz, 384 Kbps(А.Гаврилов)
    Информация о звуке 3:Dolby AC3, 6 ch, 48.0 KHz, 384 Kbps(английский)
    Субтитры:русские, украинские
    MediaInfo
    General
    Complete name : E:HELLRAISER 2VIDEO_TSVTS_06_1.VOB
    Format : MPEG-PS
    File size : 1 024 MiB
    Duration : 15mn 56s
    Overall bit rate mode : Variable
    Overall bit rate : 8 981 Kbps
    Video
    ID : 224 (0xE0)
    Format : MPEG Video
    Format version : Version 2
    Format profile : Main@Main
    Format settings, BVOP : Yes
    Format settings, Matrix : Custom
    Format settings, GOP : M=3, N=12
    Format settings, picture struc : Frame
    Duration : 15mn 56s
    Bit rate mode : Variable
    Bit rate : 7 650 Kbps
    Maximum bit rate : 9 800 Kbps
    Width : 720 pixels
    Height : 576 pixels
    Display aspect ratio : 16:9
    Frame rate : 25.000 fps
    Standard : PAL
    Color space : YUV
    Chroma subsampling : 4:2:0
    Bit depth : 8 bits
    Scan type : Interlaced
    Scan order : Top Field First
    Compression mode : Lossy
    Bits/(Pixel*Frame) : 0.738
    Time code of first frame : 00:00:00:00
    Time code source : Group of pictures t_head
    GOP, Open/Closed : Closed
    Stream size : 872 MiB (85%)
    Audio #1
    ID : 189 (0xBD)-128 (0x80)
    Format : AC-3
    Format/Info : Audio Coding 3
    Mode extension : CM (complete main)
    Format settings, Endianness : Big
    Muxing mode : DVD-Video
    Duration : 15mn 56s
    Bit rate mode : Constant
    Bit rate : 384 Kbps
    Channel(s) : 6 channels
    Channel positions : Front: L C R, Side: L R, LFE
    Sampling rate : 48.0 KHz
    Bit depth : 16 bits
    Compression mode : Lossy
    Stream size : 43.8 MiB (4%)
    Audio #2
    ID : 189 (0xBD)-129 (0x81)
    Format : AC-3
    Format/Info : Audio Coding 3
    Mode extension : CM (complete main)
    Format settings, Endianness : Big
    Muxing mode : DVD-Video
    Duration : 15mn 56s
    Bit rate mode : Constant
    Bit rate : 384 Kbps
    Channel(s) : 6 channels
    Channel positions : Front: L C R, Side: L R, LFE
    Sampling rate : 48.0 KHz
    Bit depth : 16 bits
    Compression mode : Lossy
    Stream size : 43.8 MiB (4%)
    Audio #3
    ID : 189 (0xBD)-130 (0x82)
    Format : AC-3
    Format/Info : Audio Coding 3
    Mode extension : CM (complete main)
    Format settings, Endianness : Big
    Muxing mode : DVD-Video
    Duration : 15mn 56s
    Bit rate mode : Constant
    Bit rate : 384 Kbps
    Channel(s) : 6 channels
    Channel positions : Front: L C R, Side: L R, LFE
    Sampling rate : 48.0 KHz
    Bit depth : 16 bits
    Compression mode : Lossy
    Stream size : 43.8 MiB (4%)
    Menu
    Скриншоты


    Залил: carisha

    Онлайн видео Восставший из ада 2


    Размер скачиваемого торрента: 6.64 GB (7126003712 Bytes)

    Восставший из ада 2/Hellbound: Hellraiser II (1988) DVD9
    загрузка...
    Рейтинг →
     (голосов: 1, оценка 4/5, голосовать можно 1 раз )

    Другие торренты по теме:

  • Восставший из ада 3: Ад на Земле / Hellraiser III: Hell on Earth (1992) BDRip
  • Восставший из ада 3: Ад на Земле / Hellraiser III: Hell on Earth (1992) BDRemux 1080p скачать через торрент бесплатно
  • Восставший из ада 4: Кровное родство / Hellraiser: Bloodline (1996) BDRip-AVC | P, A скачать через торрент бесплатно
  • Восставший из ада 3: Ад на Земле / Hellraiser III: Hell on Earth (1992) BDRip-AVC | P, A скачать через торрент бесплатно
  • Восставший из ада 2 / Hellbound: Hellraiser 2 (1988) BDRip-AVC | P, A скачать через торрент бесплатно
  • Восставший из ада / Hellraiser (1987) BDRip-AVC | P, A скачать через торрент бесплатно
  • Восставший из ада 2 / Hellbound: Hellraiser II / (1988) BDRip by msltel | P, P2, A
  • Восставший из ада 2 / Hellbound: Hellraiser II / (1988) BDRip 720p by msltel | P, P2, A


    • Комментарии (0):

      Информация

      Информация

        Посетители, находящиеся в группе Гости, не могут оставлять комментарии в данной новости.

        ↓ Меню



        ↓ Опрос

        А Вы добавили сайт в закладки?
        Да
        Не


        Top 10 за месяц (Фильмы)