.
Авторизация | Регистрация
Хочешь лучшие торренты? Добавь свой email!
Добавить
» » Дьяволы войны / War Devils / I diavoli della guerra / Kommando Wustenfushse (1969) DVDRip от NovaLan скачать торрент бесплатно




    Дьяволы войны / War Devils / I diavoli della guerra / Kommando Wustenfushse (1969) DVDRip от NovaLan скачать торрент бесплатно

    Опубликовал: Админ | Дата: 20-03-2015, 17:00 | Просмотров: 209


    Снималось в: Испания, Италия
    Создали в: Primex, Tilma Films
    Категория жанра: Военный
    Создали в: 1969
    Время просмотра: 1:15:09
    Перевод текста: Любительский одноголосый (den904)
    Главный режиссер: Битто Альбертини

    Актеры
    Гай Мэдисон, Венантино Венантини, Энтони Стил, Паскаль Пети, Энрике Авила, Раф Бальдассарре, Клаудио Бьява, Федерико Бойдо, Луис Индуни, Франк Бранья
    Описание:Немецкий и американский офицеры, помогают друг другу выжить в североафриканской пустыне в тяжёлые времена. Трудности превращают этих двоих совершенно разных людей в товарищей, и благодаря общим усилиям им удаётся выбраться. Дальше их пути расходятся, а спустя год коварная судьба вновь сводит капитанов враждующих армий, но на этот раз место встречи – Франция, где осуществляются боевые операции. Их дружбе предстоит серьёзнейшее испытание…

    Исходник:DVD5 R1
    Тип релиза:DVDRip
    Контейнер: AVI
    Информация о видео:704x384 (1.83:1), 23.976 fps, XviD MPEG-4 ~1700 kbps avg, 0.26 bit/pixel
    Информация о звуке 1: 48 kHz, AC3 Dolby Digital, 2/0 (L,R) ch, ~448 kbps (русский)
    Информация о звуке 2: 48 kHz, AC3 Dolby Digital, 2/0 (L,R) ch, ~448 kbps (немецкий)
    MediaInfo
    Общее
    Полное имя : D:1АААДьяволы войны.avi
    Формат : AVI
    Формат/Информация : Audio Video Interleave
    Размер файла : 1,37 Гбайт
    Продолжительность : 1 ч. 15 м.
    Общий поток : 2611 Кбит/сек
    Программа кодирования : VirtualDubMod 1.5.10.2 (build 2540/release)
    Библиотека кодирования : VirtualDubMod build 2540/release
    Видео
    Идентификатор : 0
    Формат : MPEG-4 Visual
    Профиль формата : Advanced Simple@L5
    Параметр BVOP формата : 2
    Параметр QPel формата : Нет
    Параметр GMC формата : Без точки перехода
    Параметр матрицы формата : Default (MPEG)
    Режим смешивания : Сжатый битовый поток
    Идентификатор кодека : XVID
    Идентификатор кодека/Подсказка : XviD
    Продолжительность : 1 ч. 15 м.
    Битрейт : 1701 Кбит/сек
    Ширина : 704 пикселя
    Высота : 384 пикселя
    Соотношение сторон : 1,85:1
    Частота кадров : 23,976 кадра/сек
    Цветовое пространство : YUV
    Субдискретизация насыщенности : 4:2:0
    Битовая глубина : 8 бит
    Тип развёртки : Прогрессивная
    Метод сжатия : С потерями
    Бит/(Пиксели*Кадры) : 0.262
    Размер потока : 914 Мбайт (65%)
    Библиотека кодирования : XviD 1.2.1 (UTC 2008-12-04)
    Аудио #1
    Идентификатор : 1
    Формат : AC-3
    Формат/Информация : Audio Coding 3
    Расширение режима : CM (complete main)
    Параметр Endianness формата : Big
    Идентификатор кодека : 2000
    Продолжительность : 1 ч. 15 м.
    Вид битрейта : Постоянный
    Битрейт : 448 Кбит/сек
    Каналы : 2 канала
    Расположение каналов : Front: L R
    Частота : 48,0 КГц
    Битовая глубина : 16 бит
    Метод сжатия : С потерями
    Размер потока : 241 Мбайт (17%)
    Выравнивание : Разделение по промежуткам
    Продолжительность промежутка : 42 мс. (1,00 видеокадр)
    Время предзагрузки промежутка : 500 мс.
    Аудио #2
    Идентификатор : 2
    Формат : AC-3
    Формат/Информация : Audio Coding 3
    Расширение режима : CM (complete main)
    Параметр Endianness формата : Big
    Идентификатор кодека : 2000
    Продолжительность : 1 ч. 15 м.
    Вид битрейта : Постоянный
    Битрейт : 448 Кбит/сек
    Каналы : 2 канала
    Расположение каналов : Front: L R
    Частота : 48,0 КГц
    Битовая глубина : 16 бит
    Метод сжатия : С потерями
    Размер потока : 241 Мбайт (17%)
    Выравнивание : Разделение по промежуткам
    Продолжительность промежутка : 42 мс. (1,00 видеокадр)
    Время предзагрузки промежутка : 500 мс.

    Скриншоты

    Релиз группа:
    Автор рипа:
    Залил: YArl
    Размер скачиваемого торрента: 1.37 GB (1471629312 Bytes)

    Дьяволы войны/War Devils/I diavoli della guerra/Kommando Wustenfushse (1969) DVDRip от NovaLan
    загрузка...
    Рейтинг →
     (голосов: 1, оценка 4/5, голосовать можно 1 раз )

    Другие торренты по теме:

  • Морские дьяволы. Смерч (2013) SATRip от Getty
  • Морские дьяволы. Смерч. Судьбы (2012) SATRip от КинозалSAT
  • Морские дьяволы. Смерч (2012) SATRip от КинозалSAT
  • Тасманские дьяволы / Tasmanian Devils (2013) HDTVRip
  • Морские дьяволы. Смерч. Судьбы (2013) SATRip
  • Морские дьяволы. Смерч. Судьбы (2013) DVB
  • Дьяволы у порога / Devils on the Doorstep / Guizi lai le (2000) DVDRip
  • Дьяволы / The Devils (1971) VHSRip


    • Комментарии (0):

      Информация

      Информация

        Посетители, находящиеся в группе Гости, не могут оставлять комментарии в данной новости.

        ↓ Меню



        ↓ Опрос

        А Вы добавили сайт в закладки?
        Да
        Не


        Top 10 за месяц (Фильмы)