.
Авторизация | Регистрация
Хочешь лучшие торренты? Добавь свой email!
Добавить
» » Бёрдмэн / Birdman (2014) DVD9 | Лицензия скачать торрент бесплатно




    Бёрдмэн / Birdman (2014) DVD9 | Лицензия скачать торрент бесплатно

    Опубликовал: Админ | Дата: 14-03-2015, 18:00 | Просмотров: 169


    Детально о кино
    Русское название:Бёрдмэн
    Русское название в мировом прокате:Birdman
    Создали в:2014
    Категория жанра:драма, комедия
    Главный режиссер:Алехандро Гонсалес Иньярриту

    Актеры
    Майкл Китон, Эдвард Нортон, Эмма Стоун, Наоми Уоттс, Зак Галифианакис, Андреа Райзборо, Эми Райан, Линдси Дункан, Дэмиэн Янг, Джереми Шамос

    Сюжет фильма

    В центре сюжета бывший актер, некогда сыгравший роль популярного супергероя Бёрдмэна, и теперь, переступая через свое эго, он решает принять участие в новой бродвейской постановке с целью вернуть себе былую славу, блеск и величие.

    Снималось в:США, Канада
    Киностудия:New Regency Pictures, TSG Entertainment, Worldview Entertainment
    Время просмотра:115 мин./01:55
    Перевод текста:полное дублирование
    Файл
    Кодек для видео:MPEG2
    Качество фильма:DVD9Двадцатый Век Фокс СНГ
    Информация о видео:PAL 16:9 (720x576@1024x576) VBR 6581 Kbps, 25.000 fps
    Информация о звуке 1:Dolby AC3, 6 ch, 48.0 KHz, 448 Kbps(английский)
    Информация о звуке 2:Dolby AC3, 6 ch, 48.0 KHz, 384 Kbps(русский)
    Информация о звуке 3:Dolby AC3, 6 ch, 48.0 KHz, 384 Kbps(испанский)
    Информация о звуке 4:Dolby AC3, 6 ch, 48.0 KHz, 384 Kbps(итальянский)
    Информация о звуке 5:Dolby AC3, 6 ch, 48.0 KHz, 384 Kbps(английский)
    Субтитры:русские, украинские, английские, испанские, датские, финские, итальянские, норвежские, шведские, эстонские, латышские, литовские
    MediaInfo
    General
    Complete name : D:BIRDMANVIDEO_TSVTS_01_1.VOB
    Format : MPEG-PS
    File size : 1 024 MiB
    Duration : 16mn 22s
    Overall bit rate : 8 739 Kbps
    Video
    ID : 224 (0xE0)
    Format : MPEG Video
    Format version : Version 2
    Format profile : Main@Main
    Format settings, BVOP : Yes
    Format settings, Matrix : Custom
    Format settings, GOP : Variable
    Format settings, picture struc : Frame
    Duration : 16mn 22s
    Bit rate : 6 581 Kbps
    Maximum bit rate : 7 100 Kbps
    Width : 720 pixels
    Height : 576 pixels
    Display aspect ratio : 16:9
    Frame rate : 25.000 fps
    Standard : PAL
    Color space : YUV
    Chroma subsampling : 4:2:0
    Bit depth : 8 bits
    Scan type : Interlaced
    Scan order : Top Field First
    Compression mode : Lossy
    Bits/(Pixel*Frame) : 0.635
    Time code of first frame : 01:00:03:15
    Time code source : Group of pictures t_head
    Stream size : 771 MiB (75%)
    Audio #1
    ID : 189 (0xBD)-128 (0x80)
    Format : AC-3
    Format/Info : Audio Coding 3
    Mode extension : CM (complete main)
    Format settings, Endianness : Big
    Muxing mode : DVD-Video
    Duration : 16mn 22s
    Bit rate mode : Constant
    Bit rate : 448 Kbps
    Channel(s) : 6 channels
    Channel positions : Front: L C R, Side: L R, LFE
    Sampling rate : 48.0 KHz
    Bit depth : 16 bits
    Compression mode : Lossy
    Stream size : 52.5 MiB (5%)
    Audio #2
    ID : 189 (0xBD)-129 (0x81)
    Format : AC-3
    Format/Info : Audio Coding 3
    Mode extension : CM (complete main)
    Format settings, Endianness : Big
    Muxing mode : DVD-Video
    Duration : 16mn 22s
    Bit rate mode : Constant
    Bit rate : 384 Kbps
    Channel(s) : 6 channels
    Channel positions : Front: L C R, Side: L R, LFE
    Sampling rate : 48.0 KHz
    Bit depth : 16 bits
    Compression mode : Lossy
    Stream size : 45.0 MiB (4%)
    Audio #3
    ID : 189 (0xBD)-130 (0x82)
    Format : AC-3
    Format/Info : Audio Coding 3
    Mode extension : CM (complete main)
    Format settings, Endianness : Big
    Muxing mode : DVD-Video
    Duration : 16mn 22s
    Bit rate mode : Constant
    Bit rate : 384 Kbps
    Channel(s) : 6 channels
    Channel positions : Front: L C R, Side: L R, LFE
    Sampling rate : 48.0 KHz
    Bit depth : 16 bits
    Compression mode : Lossy
    Stream size : 45.0 MiB (4%)
    Audio #4
    ID : 189 (0xBD)-131 (0x83)
    Format : AC-3
    Format/Info : Audio Coding 3
    Mode extension : CM (complete main)
    Format settings, Endianness : Big
    Muxing mode : DVD-Video
    Duration : 16mn 22s
    Bit rate mode : Constant
    Bit rate : 384 Kbps
    Channel(s) : 6 channels
    Channel positions : Front: L C R, Side: L R, LFE
    Sampling rate : 48.0 KHz
    Bit depth : 16 bits
    Compression mode : Lossy
    Stream size : 45.0 MiB (4%)
    Audio #5
    ID : 189 (0xBD)-132 (0x84)
    Format : AC-3
    Format/Info : Audio Coding 3
    Mode extension : CM (complete main)
    Format settings, Endianness : Big
    Muxing mode : DVD-Video
    Duration : 16mn 22s
    Bit rate mode : Constant
    Bit rate : 384 Kbps
    Channel(s) : 6 channels
    Channel positions : Front: L C R, Side: L R, LFE
    Sampling rate : 48.0 KHz
    Bit depth : 16 bits
    Compression mode : Lossy
    Stream size : 45.0 MiB (4%)
    Text #1
    ID : 189 (0xBD)-32 (0x20)
    Format : RLE
    Format/Info : Run-length encoding
    Muxing mode : DVD-Video
    Text #2
    ID : 189 (0xBD)-33 (0x21)
    Format : RLE
    Format/Info : Run-length encoding
    Muxing mode : DVD-Video
    Text #3
    ID : 189 (0xBD)-34 (0x22)
    Format : RLE
    Format/Info : Run-length encoding
    Muxing mode : DVD-Video
    Text #4
    ID : 189 (0xBD)-35 (0x23)
    Format : RLE
    Format/Info : Run-length encoding
    Muxing mode : DVD-Video
    Text #5
    ID : 189 (0xBD)-36 (0x24)
    Format : RLE
    Format/Info : Run-length encoding
    Muxing mode : DVD-Video
    Text #6
    ID : 189 (0xBD)-37 (0x25)
    Format : RLE
    Format/Info : Run-length encoding
    Muxing mode : DVD-Video
    Text #7
    ID : 189 (0xBD)-38 (0x26)
    Format : RLE
    Format/Info : Run-length encoding
    Muxing mode : DVD-Video
    Text #8
    ID : 189 (0xBD)-39 (0x27)
    Format : RLE
    Format/Info : Run-length encoding
    Muxing mode : DVD-Video
    Text #9
    ID : 189 (0xBD)-40 (0x28)
    Format : RLE
    Format/Info : Run-length encoding
    Muxing mode : DVD-Video
    Text #10
    ID : 189 (0xBD)-41 (0x29)
    Format : RLE
    Format/Info : Run-length encoding
    Muxing mode : DVD-Video
    Text #11
    ID : 189 (0xBD)-42 (0x2A)
    Format : RLE
    Format/Info : Run-length encoding
    Muxing mode : DVD-Video
    Text #12
    ID : 189 (0xBD)-43 (0x2B)
    Format : RLE
    Format/Info : Run-length encoding
    Muxing mode : DVD-Video
    Menu
    Скриншоты


    Залил: carisha
    Размер скачиваемого торрента: 7.74 GB (8306962432 Bytes)

    Бёрдмэн/Birdman (2014) DVD9 | Лицензия
    загрузка...
    Рейтинг →
     (голосов: 1, оценка 3/5, голосовать можно 1 раз )

    Другие торренты по теме:

  • Бёрдмэн / Birdman (2014) DVDScr | Sub скачать через торрент бесплатно
  • Бёрдмэн (2015)
  • Бёрдмэн / Birdman (2014) WEB-DLRip | Чистый звук скачать через торрент бесплатно
  • Бёрдмэн / Birdman (2014) WEB-DL 720p | Чистый звук скачать через торрент бесплатно
  • Бёрдмэн / Birdman (2014) HDRip | Чистый звук
  • Бёрдмэн / Birdman (2014) BDRip-AVC от New-Team | D | Чистый звук
  • Бёрдмэн / Birdman (2014) BDRip 720p | A
  • Бёрдмэн / Birdman (2014) HDRip | iTunes скачать через торрент бесплатно


    • Комментарии (0):

      Информация

      Информация

        Посетители, находящиеся в группе Гости, не могут оставлять комментарии в данной новости.

        ↓ Меню



        ↓ Опрос

        А Вы добавили сайт в закладки?
        Да
        Не


        Top 10 за месяц (Фильмы)