.
Авторизация | Регистрация
Хочешь лучшие торренты? Добавь свой email!
Добавить
» » Джеймс Браун: Путь наверх / Get on Up (2014) BDRip 720p | Лицензия скачать торрент бесплатно




    Джеймс Браун: Путь наверх / Get on Up (2014) BDRip 720p | Лицензия скачать торрент бесплатно

    Опубликовал: Админ | Дата: 14-03-2015, 14:00 | Просмотров: 161


    Детально о кино
    Русское название:Джеймс Браун: Путь наверх
    Русское название в мировом прокате:Get on Up
    Создали в:2014
    Категория жанра:Драма, биография, музыка
    Снималось в:США, Imagine Entertainment, Jagged Films, Wyolah Films
    Главный режиссер:Тейт Тейлор

    Актеры
    Чэдвик Боузмэн, Нелсан Эллис, Виола Дэвис, Октавия Спенсер, Дэн Эйкройд, Ленни Джеймс, Фред Меламед, Крэйг Робинсон, Джилл Скотт, Джош Хопкинс

    Сюжет фильма

    В основу фильма легла невероятная история жизни кумира миллионов, иконы сцены - Джеймса Брауна. Его боготворили не только фанаты, но и музыканты. Он был легендой эпохи - его имя одним из первых включили в Зал славы рок-н-ролла.
    Качество фильма:BDRip (720p)
    Информация о видео:MPEG-4 AVC, 7785 Кбит/с, 1280x694
    Информация о звуке:Русский (АС3, 6 ch, 448 Кбит/с), (DTS, 6 ch, 768 Кбит/с), английский (АС3, 6 ch, 640 Кбит/с), (АС3, 2 ch, 192 Кбит/с)
    Размер скачиваемого торрента:9.73 ГБ
    Время просмотра:02:18:50
    Перевод текста:Дублированный лицензия
    Субтитры:Русские, английские
    Семпл
    MI
    Общее
    Уникальный идентификатор : 238136982487590397719857700553167466481 (0xB32783B925EEA639A799E6D1212FEFF1)
    Полное имя : E:Get On Up 2014 720p BluRay x264 EbPGet On Up 2014 720p BluRay x264 EbP.mkv
    Формат : Matroska
    Версия формата : Version 4/Version 2
    Размер файла : 9,73 Гбайт
    Продолжительность : 2 ч. 18 м.
    Общий поток : 10,0 Мбит/сек
    Дата кодирования : UTC 2015-03-13 04:03:04
    Программа кодирования : mkvmerge v7.3.0 (;Nouages;) 64bit built on Oct 22 2014 18:53:34
    Библиотека кодирования : libebml v1.3.0 + libmatroska v1.4.1
    _STATISTICS_WRITING_APP : mkvmerge v7.3.0 (;Nouages;) 64bit built on Oct 22 2014 18:53:34
    _STATISTICS_WRITING_DATE_UTC : 2015-03-13 04:03:04
    _STATISTICS_TAGS : BPS DURATION NUMBER_OF_FRAMES NUMBER_OF_BYTES
    DURATION : 02:17:57.686000000
    NUMBER_OF_FRAMES : 1661
    NUMBER_OF_BYTES : 83989
    Видео
    Идентификатор : 1
    Формат : AVC
    Формат/Информация : Advanced Video Codec
    Профиль формата : High@L4.1
    Параметр CABAC формата : Да
    Параметр ReFrames формата : 9 кадров
    Идентификатор кодека : V_MPEG4/ISO/AVC
    Продолжительность : 2 ч. 18 м.
    Битрейт : 7785 Кбит/сек
    Ширина : 1280 пикселей
    Высота : 694 пикселя
    Соотношение сторон : 1,85:1
    Режим частоты кадров : Постоянный
    Частота кадров : 23,976 кадра/сек
    Цветовое пространство : YUV
    Субдискретизация насыщенности : 4:2:0
    Битовая глубина : 8 бит
    Тип развёртки : Прогрессивная
    Бит/(Пиксели*Кадры) : 0.366
    Размер потока : 7,55 Гбайт (78%)
    Заголовок : EbP
    Библиотека кодирования : x264 core 133 r2334 a3ac64b
    Настройки программы : cabac=1/ref=9/deblock=1:-3:-3/analyse=0x3:0x133/me=umh/subme=10/psy=1/psy_rd=1.00:0.00/mixed_ref=1/me_range=24/chroma_me=1/trellis=2/8x8dct=1/cqm=0/deadzone=21,11/fast_pskip=0/chroma_qp_offset=-2/threads=12/lookahead_threads=2/sliced_threads=0/nr=0/decimate=0/interlaced=0/bluray_compat=0/constrained_intra=0/bframes=8/b_pyramid=2/b_adapt=2/b_bias=0/direct=3/weightb=1/open_gop=0/weightp=2/keyint=250/keyint_min=23/scenecut=40/intra_refresh=0/rc_lookahead=60/rc=crf/mbtree=0/crf=15.0/qcomp=0.55/qpmin=0/qpmax=69/qpstep=4/vbv_maxrate=50000/vbv_bufsize=62500/crf_max=0.0/nal_hrd=none/ip_ratio=1.10/pb_ratio=1.10/aq=1:0.60
    Язык : English
    Default : Да
    Forced : Нет
    Коэффициенты матрицы : BT.709
    colour_range : Limited
    _STATISTICS_WRITING_APP : mkvmerge v7.3.0 (;Nouages;) 64bit built on Oct 22 2014 18:53:34
    _STATISTICS_WRITING_DATE_UTC : 2015-03-13 04:03:04
    _STATISTICS_TAGS : BPS DURATION NUMBER_OF_FRAMES NUMBER_OF_BYTES
    DURATION : 02:18:50.281000000
    NUMBER_OF_FRAMES : 199727
    NUMBER_OF_BYTES : 8311188091
    Аудио #1
    Идентификатор : 2
    Формат : AC-3
    Формат/Информация : Audio Coding 3
    Расширение режима : CM (complete main)
    Параметр Endianness формата : Big
    Идентификатор кодека : A_AC3
    Продолжительность : 2 ч. 18 м.
    Вид битрейта : Постоянный
    Битрейт : 448 Кбит/сек
    Каналы : 6 каналов
    Расположение каналов : Front: L C R, Side: L R, LFE
    Частота : 48,0 КГц
    Битовая глубина : 16 бит
    Метод сжатия : С потерями
    Размер потока : 445 Мбайт (4%)
    Заголовок : Blu-Ray CEE
    Язык : Russian
    Default : Да
    Forced : Нет
    Аудио #2
    Идентификатор : 3
    Формат : DTS
    Формат/Информация : Digital Theater Systems
    Режим : 16
    Параметр Endianness формата : Big
    Идентификатор кодека : A_DTS
    Продолжительность : 2 ч. 18 м.
    Вид битрейта : Постоянный
    Битрейт : 768 Кбит/сек
    Каналы : 6 каналов
    Расположение каналов : Front: L C R, Side: L R, LFE
    Частота : 48,0 КГц
    Битовая глубина : 24 бит
    Метод сжатия : С потерями
    Размер потока : 763 Мбайт (8%)
    Заголовок : Blu-Ray CEE
    Язык : Russian
    Default : Нет
    Forced : Нет
    Аудио #3
    Идентификатор : 4
    Формат : AC-3
    Формат/Информация : Audio Coding 3
    Расширение режима : CM (complete main)
    Параметр Endianness формата : Big
    Идентификатор кодека : A_AC3
    Продолжительность : 2 ч. 18 м.
    Вид битрейта : Постоянный
    Битрейт : 640 Кбит/сек
    Каналы : 6 каналов
    Расположение каналов : Front: L C R, Side: L R, LFE
    Частота : 48,0 КГц
    Битовая глубина : 16 бит
    Метод сжатия : С потерями
    Размер потока : 636 Мбайт (6%)
    Заголовок : AC3 5.1@640Kbps
    Язык : English
    Default : Нет
    Forced : Нет
    Аудио #4
    Идентификатор : 5
    Формат : AC-3
    Формат/Информация : Audio Coding 3
    Профиль формата : Dolby Digital
    Расширение режима : CM (complete main)
    Параметр Endianness формата : Big
    Идентификатор кодека : A_AC3
    Продолжительность : 2 ч. 18 м.
    Вид битрейта : Постоянный
    Битрейт : 192 Кбит/сек
    Каналы : 2 канала
    Расположение каналов : Front: L R
    Частота : 48,0 КГц
    Битовая глубина : 16 бит
    Метод сжатия : С потерями
    Размер потока : 191 Мбайт (2%)
    Заголовок : Commentary with Tate Taylor
    Язык : English
    Default : Нет
    Forced : Нет
    Текст #1
    Идентификатор : 6
    Формат : UTF-8
    Идентификатор кодека : S_TEXT/UTF8
    Идентификатор кодека/Информация : UTF-8 Plain Text
    Язык : Russian
    Default : Да
    Forced : Нет
    Текст #2
    Идентификатор : 7
    Формат : UTF-8
    Идентификатор кодека : S_TEXT/UTF8
    Идентификатор кодека/Информация : UTF-8 Plain Text
    Язык : Russian
    Default : Нет
    Forced : Нет
    Текст #3
    Идентификатор : 8
    Формат : UTF-8
    Идентификатор кодека : S_TEXT/UTF8
    Идентификатор кодека/Информация : UTF-8 Plain Text
    Заголовок : English
    Язык : English
    Default : Нет
    Forced : Нет
    Меню
    00:00:00.000 : en:00:00:00.000
    00:06:14.165 : en:00:06:14.165
    00:12:15.026 : en:00:12:15.026
    00:20:25.015 : en:00:20:25.015
    00:28:16.403 : en:00:28:16.403
    00:33:14.618 : en:00:33:14.618
    00:40:56.204 : en:00:40:56.204
    00:46:56.230 : en:00:46:56.230
    00:53:33.961 : en:00:53:33.961
    00:59:33.487 : en:00:59:33.487
    01:05:10.365 : en:01:05:10.365
    01:09:50.895 : en:01:09:50.895
    01:15:46.834 : en:01:15:46.834
    01:22:56.513 : en:01:22:56.513
    01:32:55.779 : en:01:32:55.779
    01:42:11.125 : en:01:42:11.125
    01:50:40.509 : en:01:50:40.509
    01:58:14.379 : en:01:58:14.379
    02:04:31.506 : en:02:04:31.506
    02:10:59.852 : en:02:10:59.852

    Скриншоты


    Размер скачиваемого торрента: 9.73 GB (10446716214 Bytes)

    Джеймс Браун: Путь наверх/Get on Up (2014) BDRip 720p | Лицензия
    загрузка...
    Рейтинг →
     (голосов: 1, оценка 4/5, голосовать можно 1 раз )

    Другие торренты по теме:

  • Джеймс Браун: Путь наверх / Get on Up (2014) BDRip 720p от MediaClub | iTunes
  • Джеймс Браун: Путь наверх / Get on Up (2014) НDRip | iTunes
  • Джеймс Браун: Путь наверх / Get on Up (2014) BDRip | Лицензия
  • Джеймс Браун: Путь наверх / Get on Up (2014) BDRip-AVC от MediaClub | D | Лицензия


    • Комментарии (0):

      Информация

      Информация

        Посетители, находящиеся в группе Гости, не могут оставлять комментарии в данной новости.

        ↓ Меню



        ↓ Опрос

        А Вы добавили сайт в закладки?
        Да
        Не


        Top 10 за месяц (Фильмы)