.
Авторизация | Регистрация
Хочешь лучшие торренты? Добавь свой email!
Добавить
» » Капитан Саблезуб и сокровища Лама Рама / Kaptein Sabeltann og skatten i Lama Rama (2014) BDRip скачать торрент бесплатно




    Капитан Саблезуб и сокровища Лама Рама / Kaptein Sabeltann og skatten i Lama Rama (2014) BDRip скачать торрент бесплатно

    Опубликовал: Админ | Дата: 13-03-2015, 11:00 | Просмотров: 169


    Снималось в: Норвегия
    Создали в: Norwegian Pirates, Storm Films, Storm Productions
    Категория жанра: Приключения
    Создали в: 2014
    Время просмотра: 01:36:17
    Перевод текста: Любительский одноголосый (Виктор Береговых)
    Оригинальная аудиодорожка: Английская
    Главный режиссер: Йон Андерсен

    Актеры
    Тува Новотны, Андерс Баасмо Кристиансен, Фридтьов Сохейм, Одд Магнус Уильямсон, Карре Хаген Сиднесс, Пиа Тьелта, Йон Ёигарден, Роберт Скйэрстад, Нильс Йорген Каалстад, Хами Белаль
    Описание:Отважный и самоуверенный капитан Саблезуб бороздит моря и океаны со своей командой в поисках сокровищ. Естественно, в пути они переживают массу приключений: на них нападает целая армия злобных обезьян, их судно угоняет конкурирующая шайка пиратов, они оказываются участниками государственного переворота, а в довершении всего, у них юнга, который не умеет плавать…

    Исходник:BluRay
    Тип релиза:BDRip
    Контейнер: AVI
    Информация о видео: 688x288 (2.39:1), 23.976 fps, XviD MPEG-4 ~1456 kbps avg, 0.31 bit/pixel
    Информация о звуке 1: 48 kHz, AC3 Dolby Digital, 2/0 (L,R) ch, ~256 kbps (русский)
    Информация о звуке 2: 48 kHz, AC3 Dolby Digital, 5/1 (L,R) ch, ~448 kbps (английский)
    MediaInfo
    Общее
    Полное имя : D:ААА2Капитан Саблезуб.avi
    Формат : AVI
    Формат/Информация : Audio Video Interleave
    Размер файла : 1,46 Гбайт
    Продолжительность : 1 ч. 36 м.
    Общий поток : 2175 Кбит/сек
    Программа кодирования : VirtualDubMod 1.5.10.2 (build 2540/release)
    Библиотека кодирования : VirtualDubMod build 2540/release
    Видео
    Идентификатор : 0
    Формат : MPEG-4 Visual
    Профиль формата : Advanced Simple@L5
    Параметр BVOP формата : 2
    Параметр QPel формата : Нет
    Параметр GMC формата : Без точки перехода
    Параметр матрицы формата : Default (MPEG)
    Режим смешивания : Сжатый битовый поток
    Идентификатор кодека : XVID
    Идентификатор кодека/Подсказка : XviD
    Продолжительность : 1 ч. 36 м.
    Битрейт : 1457 Кбит/сек
    Ширина : 688 пикселей
    Высота : 288 пикселей
    Соотношение сторон : 2,40:1
    Частота кадров : 23,976 кадра/сек
    Цветовое пространство : YUV
    Субдискретизация насыщенности : 4:2:0
    Битовая глубина : 8 бит
    Тип развёртки : Прогрессивная
    Метод сжатия : С потерями
    Бит/(Пиксели*Кадры) : 0.307
    Размер потока : 1003 Мбайт (67%)
    Библиотека кодирования : XviD 1.2.1 (UTC 2008-12-04)
    Аудио #1
    Идентификатор : 1
    Формат : AC-3
    Формат/Информация : Audio Coding 3
    Расширение режима : CM (complete main)
    Параметр Endianness формата : Big
    Идентификатор кодека : 2000
    Продолжительность : 1 ч. 36 м.
    Вид битрейта : Постоянный
    Битрейт : 256 Кбит/сек
    Каналы : 2 канала
    Расположение каналов : Front: L R
    Частота : 48,0 КГц
    Битовая глубина : 16 бит
    Метод сжатия : С потерями
    Размер потока : 176 Мбайт (12%)
    Выравнивание : Разделение по промежуткам
    Продолжительность промежутка : 42 мс. (1,00 видеокадр)
    Время предзагрузки промежутка : 500 мс.
    Аудио #2
    Идентификатор : 2
    Формат : AC-3
    Формат/Информация : Audio Coding 3
    Расширение режима : CM (complete main)
    Параметр Endianness формата : Big
    Идентификатор кодека : 2000
    Продолжительность : 1 ч. 36 м.
    Вид битрейта : Постоянный
    Битрейт : 448 Кбит/сек
    Каналы : 6 каналов
    Расположение каналов : Front: L C R, Side: L R, LFE
    Частота : 48,0 КГц
    Битовая глубина : 16 бит
    Метод сжатия : С потерями
    Размер потока : 309 Мбайт (21%)
    Выравнивание : Разделение по промежуткам
    Продолжительность промежутка : 42 мс. (1,00 видеокадр)
    Время предзагрузки промежутка : 500 мс.

    Скриншоты


    Релиз:
    Залил: YArl
    Размер скачиваемого торрента: 1.46 GB (1570775040 Bytes)

    Капитан Саблезуб и сокровища Лама Рама/Kaptein Sabeltann og skatten i Lama Rama (2014) BDRip
    загрузка...
    Рейтинг →
     (голосов: 1, оценка 3/5, голосовать можно 1 раз )

    Другие торренты по теме:

  • Капитан Гром и Святой Грааль / Ritter des heiligen Grals / El Capitn Trueno y el Santo Grial (2011) BDRip 720p
  • OST - Капитан Америка: Первый Мститель / Captain America: The First Avenger (2011) MP3
  • Капитан Конан / Capitaine Conan (1996) DVDRip-AVC от Temperest
  • Капитан Кенгуру - Правящий класс (2013) WEBRip 720p
  • Капитан Алатристе / Alatriste (2006) BDRip 1080p | D, P2
  • Капитан Америка / Captain America (1990) HDRip | Театральная версия / Theatrical Cut
  • Малиновская Майя - Капитан Нейбо (2013) MP3
  • Капитан Крюк / Hook (1991) BDRip-AVC от potroks | P


    • Комментарии (0):

      Информация

      Информация

        Посетители, находящиеся в группе Гости, не могут оставлять комментарии в данной новости.

        ↓ Меню



        ↓ Опрос

        А Вы добавили сайт в закладки?
        Да
        Не


        Top 10 за месяц (Фильмы)