.
Авторизация | Регистрация
Хочешь лучшие торренты? Добавь свой email!
Добавить
» » Пресная вода / Sweetwater (2013) DVD9 | A скачать торрент бесплатно




    Пресная вода / Sweetwater (2013) DVD9 | A скачать торрент бесплатно

    Опубликовал: Админ | Дата: 13-03-2015, 07:00 | Просмотров: 181


    Детально о кино
    Русское название:Пресная вода
    Русское название в мировом прокате:Sweetwater
    Создали в:2013
    Категория жанра:Вестерн
    Главный режиссер:Логан Миллер

    Актеры
    Дженьюэри Джонс, Эд Харрис, Джейсон Айзекс, Эдуардо Норьега, Стивен Рут, Джейсон Алдин, Вик Браудер, Люче Рэйнс, Дилан Кенин, Кит Мэривезер

    Сюжет фильма
    Действие картины будет разворачиваться в 1886 году в Нью-Мексико. Лента расскажет о молодой вдове, которая рискует всем, чтобы отомстить жестокому владельцу овцеводческой фермы за убийство своего мужа.

    Снималось в:США
    Киностудия:Kickstart Productions, Mythic International Entertainment
    Время просмотра:01:31:11
    Перевод текста:Авторский одноголосый (Дольский)
    Файл
    Кодек для видео:MPEG-2
    Качество фильма:DVD-9
    Информация о видео:MPEG2, NTSC 16:9 (720x480) VBR, 29,970 кадра/сек, 7054 Кбит/сек
    Информация о звуке:Русский/Английский/Немецкий DD 5.1 (448 Kbps)
    Меню
    DVDInfo
    Title:
    Size: 5.37 Gb ( 5 635 980 KBytes ) - DVD-9
    Enabled regions: 1, 2, 3, 4, 5, 6, 7, 8
    VTS_01 :
    Play Length: 01:31:11
    Video: NTSC 16:9 (720x480) VBR, Auto PanScan
    Audio:
    Russian (Dolby AC3, 6 ch)
    English (Dolby AC3, 6 ch)
    Deutsch (Dolby AC3, 6 ch)
    Menu Video:
    NTSC 4:3 (704x480) VBR
    Menu English Language Unit :
    Root Menu
    MediaInfo
    Общее
    Полное имя : D:ААА2ПРЕСНАЯ ВОДАVIDEO_TSVTS_01_1.VOB
    Формат : MPEG-PS
    Размер файла : 1001 Мбайт
    Продолжительность : 16 м.
    Режим общего битрейта : Переменный
    Общий поток : 8569 Кбит/сек
    Видео
    Идентификатор : 224 (0xE0)
    Формат : MPEG Video
    Версия формата : Version 2
    Профиль формата : Main@Main
    Параметр BVOP формата : Да
    Параметр матрицы формата : По умолчанию
    Параметр GOP формата : M=3, N=15
    Продолжительность : 16 м.
    Вид битрейта : Переменный
    Битрейт : 7054 Кбит/сек
    Максимальный битрейт : 8264 Кбит/сек
    Ширина : 720 пикселей
    Высота : 480 пикселей
    Соотношение сторон : 16:9
    Частота кадров : 29,970 кадров/сек
    Стандарт вещания : NTSC
    Цветовое пространство : YUV
    Субдискретизация насыщенности : 4:2:0
    Битовая глубина : 8 бит
    Тип развёртки : Прогрессивная
    Метод сжатия : С потерями
    Бит/(Пиксели*Кадры) : 0.681
    TimeCode_FirstFrame : 00:00:00:00
    TimeCode_Source : Group of pictures t_head
    Размер потока : 824 Мбайт (82%)
    Аудио #1
    Идентификатор : 189 (0xBD)-128 (0x80)
    Формат : AC-3
    Формат/Информация : Audio Coding 3
    Расширение режима : CM (complete main)
    Параметр Endianness формата : Big
    Режим смешивания : DVD-Video
    Продолжительность : 16 м.
    Вид битрейта : Постоянный
    Битрейт : 448 Кбит/сек
    Каналы : 6 каналов
    Расположение каналов : Front: L C R, Side: L R, LFE
    Частота : 48,0 КГц
    Битовая глубина : 16 бит
    Метод сжатия : С потерями
    Размер потока : 52,3 Мбайт (5%)
    Аудио #2
    Идентификатор : 189 (0xBD)-129 (0x81)
    Формат : AC-3
    Формат/Информация : Audio Coding 3
    Расширение режима : CM (complete main)
    Параметр Endianness формата : Big
    Режим смешивания : DVD-Video
    Продолжительность : 16 м.
    Вид битрейта : Постоянный
    Битрейт : 448 Кбит/сек
    Каналы : 6 каналов
    Расположение каналов : Front: L C R, Side: L R, LFE
    Частота : 48,0 КГц
    Битовая глубина : 16 бит
    Метод сжатия : С потерями
    Размер потока : 52,3 Мбайт (5%)
    Аудио #3
    Идентификатор : 189 (0xBD)-130 (0x82)
    Формат : AC-3
    Формат/Информация : Audio Coding 3
    Расширение режима : CM (complete main)
    Параметр Endianness формата : Big
    Режим смешивания : DVD-Video
    Продолжительность : 16 м.
    Вид битрейта : Постоянный
    Битрейт : 448 Кбит/сек
    Каналы : 6 каналов
    Расположение каналов : Front: L C R, Side: L R, LFE
    Частота : 48,0 КГц
    Битовая глубина : 16 бит
    Метод сжатия : С потерями
    Размер потока : 52,3 Мбайт (5%)
    Меню





    Скриншоты

    Релиз:
    Залил: YArl
    Размер скачиваемого торрента: 5.37 GB (5771243520 Bytes)

    Пресная вода/Sweetwater (2013) DVD9 | A
    загрузка...
    Рейтинг →
     (голосов: 1, оценка 3/5, голосовать можно 1 раз )

    Другие торренты по теме:

  • Пресная вода / Sweetwater (2013) HDRip | Sub скачать через торрент бесплатно
  • Пресная вода / Sweetwater (2013) BDRip 720p | L1
  • Пресная вода / Sweetwater (2013) HDRip | L1
  • Пресная вода / Sweetwater (2013) BDRip-AVC от MediaClub | L1 скачать через торрент бесплатно
  • Пресная вода / Sweetwater (2013) HDRip от Cmert | L1 скачать через торрент бесплатно
  • Пресная вода / Sweetwater (2013) BDRip 1080p от CINEMANIA | 2xL1 скачать через торрент бесплатно
  • Пресная вода / Sweetwater (2013) BDRip 720p от CINEMANIA | 2xL1 скачать через торрент бесплатно
  • Пресная вода / Sweetwater (2013) BDRip-AVC от HELLYWOOD | A


    • Комментарии (0):

      Информация

      Информация

        Посетители, находящиеся в группе Гости, не могут оставлять комментарии в данной новости.

        ↓ Меню



        ↓ Опрос

        А Вы добавили сайт в закладки?
        Да
        Не


        Top 10 за месяц (Фильмы)