.
Авторизация | Регистрация
Хочешь лучшие торренты? Добавь свой email!
Добавить
» » Джеймс Бонд. Агент 007: Только для твоих глаз / James Bond: For Your Eyes Only (1981) BDRip | D скачать торрент бесплатно




    Джеймс Бонд. Агент 007: Только для твоих глаз / James Bond: For Your Eyes Only (1981) BDRip | D скачать торрент бесплатно

    Опубликовал: Админ | Дата: 9-03-2015, 05:01 | Просмотров: 112


    Детально о кино
    Русское название:Только для твоих глаз
    Русское название в мировом прокате:For Your Eyes Only
    Создали в:1981
    Категория жанра:боевик, триллер, криминал, приключения
    Главный режиссер:Джон Глен

    Актеры
    Роджер Мур, Кароль Буке, Линн-Холли Джонсон, Джулиан Гловер, Кассандра Харрис, Джилл Беннетт, Майкл Гозард, Джон Уаймэн, Джек Хедли, Лоис Максвелл, Дезмонд Льюэлин, Джефри Кин, Уолтер Готелл, Джеймс Виллерс, Джон Морено, Чарльз Дэнс, Пол Анджелис, Тоби Робинс, Джек Клэфф, Стэфан Калифа, Грэм Кроуден, Ноэль Джонсон, Уильям Хойланд, Пол Брук, Ева Ройбер-Стайер, Фред Брайант, Роббин Янг, Грэхэм Хоукс, Джон Уэллс, Джанет Браун, Дольф Лундгрен

    Сюжет фильма
    На этот раз агенту 007 предстоит захватывающая дух гонка с русскими коллегами. Дело в том, что Британские военные умудрились утопить в Ионическом море абсолютно секретное оборудование. Если аппаратура попадет в руки советским разведчикам, это может привести к ужасающим для Великобритании и всего мира последствиям.
    Бонду приходится с безумной скоростью прокатиться по трассе для бобслея, повисеть на одной руке над бездонной пропастью, участвовать в захватывающем дух подводном сражении с применением новейшего шпионского оружия. В этом непростом соревновании Бонду помогает великолепная красавица Милена, которая одинаково хорошо владеет боевым арбалетом и, что еще более опасно, искусством обольщения.

    Снималось в:Великобритания
    Время просмотра:02:07:59
    Перевод текста:Дублированный
    Файл
    Кодек для видео:Xvid
    Качество фильма:BDRip
    Информация о видео:720x304 (2.37:1), 23.976 fps, Xvid build 73 ~1238 kbps avg, 0.24 bit/pixel
    Информация о звуке:48 kHz, AC3 Dolby Digital, 3/2 (L,C,R,l,r) + LFE ch, ~384.00 kbps avg
    Скриншоты

    MediaInfo
    General
    Complete name : D:?07_Tolko_dlya_tvoih_glaz_1981_BDRip_by_Dalemake.avi
    Format : AVI
    Format/Info : Audio Video Interleave
    File size : 1.46 GiB
    Duration : 2h 7mn
    Overall bit rate : 1 632 Kbps
    Writing application : VirtualDubMod 1.5.10.3 | www.virtualdub-fr.org || (build 2550/release)
    Writing library : VirtualDubMod build 2550/release
    Video
    ID : 0
    Format : MPEG-4 Visual
    Format profile : Advanced Simple@L5
    Format settings, BVOP : 1
    Format settings, QPel : No
    Format settings, GMC : No warppoints
    Format settings, Matrix : Custom
    Codec ID : XVID
    Codec ID/Hint : XviD
    Duration : 2h 7mn
    Bit rate : 1 239 Kbps
    Width : 720 pixels
    Height : 304 pixels
    Display aspect ratio : 2.35:1
    Frame rate : 23.976 fps
    Color space : YUV
    Chroma subsampling : 4:2:0
    Bit depth : 8 bits
    Scan type : Progressive
    Compression mode : Lossy
    Bits/(Pixel*Frame) : 0.236
    Stream size : 1.11 GiB (76%)
    Writing library : XviD 73
    Audio
    ID : 1
    Format : AC-3
    Format/Info : Audio Coding 3
    Mode extension : CM (complete main)
    Format settings, Endianness : Big
    Codec ID : 2000
    Duration : 2h 7mn
    Bit rate mode : Constant
    Bit rate : 384 Kbps
    Channel(s) : 6 channels
    Channel positions : Front: L C R, Side: L R, LFE
    Sampling rate : 48.0 KHz
    Bit depth : 16 bits
    Compression mode : Lossy
    Stream size : 352 MiB (24%)
    Alignment : Split accross interleaves
    Interleave, duration : 42 ms (1.00 video frame)
    Interleave, preload duration : 500 ms

    Размер скачиваемого торрента: 1.46 GB (1566889984 Bytes)

    Джеймс Бонд. Агент 007: Только для твоих глаз/James Bond: For Your Eyes Only (1981) BDRip | D
    загрузка...
    Рейтинг →
     (голосов: 1, оценка 4/5, голосовать можно 1 раз )

    Другие торренты по теме:

  • Джеймс Бонд. Агент 007: Человек с золотым пистолетом / James Bond: The Man with the Golden Gun (1974) BDRip 1080p
  • Джеймс Бонд. Агент 007: Координаты Скайфолл / James Bond: Skyfall (2012) BDRip от HQCLUB | Лицензия
  • Джеймс Бонд 007: Квант милосердия / James Bond 007: Quantum of Solace (2008) HDRip от Torrent-Xzona | КПК | D
  • Джеймс Бонд 007: Завтра не умрет никогда / James Bond 007: Tomorrow Never Dies (1997) BDRip 720p
  • Джеймс Бонд 007: Золотой глаз / James Bond 007: GoldenEye (1995) BDRip 720p
  • Джеймс Бонд 007 - Полная коллекция / James Bond 007 - Special Edition (1962-2012) BDRip от GORGIK
  • Джеймс Бонд. Агент 007: Золотой глаз / James Bond 007: Golden Eye (1995) НDRip от Scarabey | D
  • Джеймс Бонд. Агент 007: Доктор Ноу / James Bond: Dr. No (1962) BDRip 1080p


    • Комментарии (0):

      Информация

      Информация

        Посетители, находящиеся в группе Гости, не могут оставлять комментарии в данной новости.

        ↓ Меню



        ↓ Опрос

        А Вы добавили сайт в закладки?
        Да
        Не


        Top 10 за месяц (Фильмы)