.
Авторизация | Регистрация
Хочешь лучшие торренты? Добавь свой email!
Добавить




71 / 71 (2014) HDRip-AVC | L2 скачать торрент бесплатно

Опубликовал: Админ | Дата: 8-03-2015, 19:00 | Просмотров: 197



Детально о кино
Русское название: 71
Русское название в мировом прокате: ;71
Создали в: 2014
Категория жанра:Боевик, триллер, драма, военный
Главный режиссер: Ян Деманж

Актеры
Джек О;Коннелл, Ричард Дормер, Чарли Мерфи, Дэвид Уилмот, Шон Харрис, Киллиан Скотт, Сэм Рейд, Барри Киган, Пол Андерсон, Мартин Маккэнн, Бабу Сизэй, Джек Лоуден, Кори Маккинли, Пол Попплуэлл


Сюжет фильма
1971 год. Конфликт в Северной Ирландии перерастает в гражданскую войну. Новобранца Гари отправляют в зону военных действий в Белфасте. Город разделился на лояльных протестантов и враждебных католиков. Обе стороны имеют военизированные подразделения, кроме того, радикальные уличные банды и тайные агенты со всех сторон пытаются отстаивать свои интересы…



Снималось в: Великобритания/Crab Apple Films, Protagonist Pictures, Warp Films
Время просмотра: 01:39:24
Перевод текста:Любительский(двухголосый, закадровый)-Sunny Films

Файл
Качество фильма:HDRip-AVC
Тип видео: MKV
Информация о видео: MPEG4/AVC, 2636 Кбит/сек, 1024х428 (2.40:1), 23.976 кадра/сек
Информация о звуке 1: AC3, 2 канала, 192 Кбит/сек |Русский
Информация о звуке 2: AC3, 6 каналов, 448 Кбит/сек |Английский
Субтитры: Английские (Full, SDH)
Навигация по главам: Есть

MediaInfo:
Общее
Уникальный идентификатор : 210972803593774824674404187663304211629 (0x9EB7E24D1EB8420588915ED6041FBCAD)
Полное имя : ;71. (2014) HDRip-AVC.mkv
Формат : Matroska
Версия формата : Version 2
Размер файла : 2,27 Гбайт
Продолжительность : 1 ч. 39 м.
Общий поток : 3269 Кбит/сек
Название фильма : 71. 2014
Дата кодирования : UTC 2015-03-08 13:30:07
Программа кодирования : mkvmerge v5.8.0 (;No Sleep/Pillow;) built on Sep 2 2012 15:37:04
Библиотека кодирования : libebml v1.2.3 + libmatroska v1.3.0

Видео
Идентификатор : 1
Формат : AVC
Формат/Информация : Advanced Video Codec
Профиль формата : High@L4.1
Параметр CABAC формата : Да
Параметр ReFrames формата : 10 кадров
Идентификатор кодека : V_MPEG4/ISO/AVC
Продолжительность : 1 ч. 39 м.
Битрейт : 2636 Кбит/сек
Ширина : 1024 пикселя
Высота : 428 пикселей
Соотношение сторон : 2,40:1
Режим частоты кадров : Постоянный
Частота кадров : 23,976 кадра/сек
Цветовое пространство : YUV
Субдискретизация насыщенности : 4:2:0
Битовая глубина : 8 бит
Тип развёртки : Прогрессивная
Бит/(Пиксели*Кадры) : 0.251
Размер потока : 1,78 Гбайт (78%)
Заголовок : BuR
Библиотека кодирования : x264 core 144 r2525 40bb568
Настройки программы : cabac=1/ref=10/deblock=1:-2:-2/analyse=0x3:0x133/me=umh/subme=10/psy=1/psy_rd=1.00:0.07/mixed_ref=1/me_range=24/chroma_me=1/trellis=2/8x8dct=1/cqm=0/deadzone=21,11/fast_pskip=0/chroma_qp_offset=-3/threads=6/lookahead_threads=1/sliced_threads=0/nr=0/decimate=1/interlaced=0/bluray_compat=0/constrained_intra=0/bframes=8/b_pyramid=2/b_adapt=2/b_bias=0/direct=3/weightb=1/open_gop=0/weightp=2/keyint=240/keyint_min=23/scenecut=40/intra_refresh=0/rc=2pass/mbtree=0/bitrate=2636/ratetol=2.0/qcomp=0.70/qpmin=0/qpmax=69/qpstep=4/cplxblur=20.0/qblur=0.5/ip_ratio=1.40/pb_ratio=1.30/aq=2:0.70
Язык : English
Default : Да
Forced : Нет

Аудио #1
Идентификатор : 2
Формат : AC-3
Формат/Информация : Audio Coding 3
Расширение режима : CM (complete main)
Параметр Endianness формата : Big
Идентификатор кодека : A_AC3
Продолжительность : 1 ч. 39 м.
Вид битрейта : Постоянный
Битрейт : 192 Кбит/сек
Каналы : 2 канала
Расположение каналов : Front: L R
Частота : 48,0 КГц
Битовая глубина : 16 бит
Метод сжатия : С потерями
Размер потока : 137 Мбайт (6%)
Заголовок : L2 | Sunny Films
Язык : Russian
Default : Да
Forced : Нет

Аудио #2
Идентификатор : 3
Формат : AC-3
Формат/Информация : Audio Coding 3
Расширение режима : CM (complete main)
Параметр Endianness формата : Big
Идентификатор кодека : A_AC3
Продолжительность : 1 ч. 39 м.
Вид битрейта : Постоянный
Битрейт : 448 Кбит/сек
Каналы : 6 каналов
Расположение каналов : Front: L C R, Side: L R, LFE
Частота : 48,0 КГц
Битовая глубина : 16 бит
Метод сжатия : С потерями
Размер потока : 319 Мбайт (14%)
Заголовок : Original
Язык : English
Default : Нет
Forced : Нет

Текст #1
Идентификатор : 4
Формат : UTF-8
Идентификатор кодека : S_TEXT/UTF8
Идентификатор кодека/Информация : UTF-8 Plain Text
Заголовок : Full
Язык : English
Default : Нет
Forced : Нет

Текст #2
Идентификатор : 5
Формат : UTF-8
Идентификатор кодека : S_TEXT/UTF8
Идентификатор кодека/Информация : UTF-8 Plain Text
Заголовок : SDH
Язык : English
Default : Нет
Forced : Нет

Меню
00:00:00.000 : en:00:00:00.000
00:07:32.661 : en:00:07:32.661
00:14:21.652 : en:00:14:21.652
00:28:27.497 : en:00:28:27.497
00:34:31.820 : en:00:34:31.820
00:40:27.008 : en:00:40:27.008
00:50:16.305 : en:00:50:16.305
00:57:46.380 : en:00:57:46.380
01:04:55.809 : en:01:04:55.809
01:15:41.537 : en:01:15:41.537
01:22:14.263 : en:01:22:14.263
01:30:50.236 : en:01:30:50.236
__________________________________________
x264 info: frame I:970 Avg QP:15.92 size: 61106
x264 info: frame P:34345 Avg QP:18.80 size: 24642
x264 info: frame B:107700 Avg QP:21.09 size: 9780
x264 info: consecutive B-frames: 2.7% 3.8% 10.6% 29.7% 14.8% 30.3% 4.7% 2.0% 1.3%



Релиз подготовил:
Размер скачиваемого торрента: 2.27 GB (2437584669 Bytes)

71/71 (2014) HDRip-AVC | L2
загрузка...
Рейтинг →
 (голосов: 1, оценка 3/5, голосовать можно 1 раз )

Другие торренты по теме:

  • 71-я Церемония вручения премии Золотой глобус (2014) HDTVRip 720р
  • 71-я Церемония вручения премии Золотой глобус 2014 / The 71st Golden Globe Awards 2014 (2014) HDTVRip | P2
  • 71: В огне / 71: Into the Fire / Pohwasogeuro (2010) HDRip | P2
  • Необстрелянные / 71: В огне / 71: Into the Fire / Pohwasogeuro (2010) DVD9 | P
  • Необстрелянные / 71: В огне / 71: Into the Fire / Pohwasogeuro (2010) HDRip RG Orient Extreme | P2, A скачать через торрент бесплатно
  • Необстрелянные / 71: В огне / 71: Into the Fire / Pohwasogeuro (2010) HDRip от RG Orient Extreme | P2 скачать через торрент бесплатно
  • 71 / 71 (2014) HDRip от Scarabey | L2
  • 71 / 71 (2014) HDRip | A


    • Комментарии (0):

      Информация

      Информация

        Посетители, находящиеся в группе Гости, не могут оставлять комментарии в данной новости.

        ↓ Меню



        ↓ Опрос

        А Вы добавили сайт в закладки?
        Да
        Не


        Top 10 за месяц (Фильмы)