.
Авторизация | Регистрация
Хочешь лучшие торренты? Добавь свой email!
Добавить
» » Самая обаятельная и привлекательная (1985) HDTV (1080i) скачать торрент бесплатно




    Самая обаятельная и привлекательная (1985) HDTV (1080i) скачать торрент бесплатно

    Опубликовал: Админ | Дата: 8-03-2015, 16:00 | Просмотров: 214


    Русское название в мировом прокате:Самая обаятельная и привлекательная
    Создали в:1985
    Категория жанра:Лирическая комедия
    Снималось в:СССР, Мосфильм
    Главный режиссер:Геральд Бежанов

    Актеры
    Ирина Муравьёва, Татьяна Васильева, Александр Абдулов, Леонид Куравлёв, Михаил Кокшенов, Людмила Иванова, Лариса Удовиченко, Владимир Носик, Александр Ширвиндт, Лев Перфилов, Любовь Соколова, Вероника Изотова, Виктор Ильичёв, Гурам Абесадзе, Виктор Филиппов, Людмила Карауш, Георгий Мартиросян, Владимир Мышкин, Яков Саркисов, Вера Сотникова, Игорь Ясулович, Екатерина Куравлева, Геральд Бежанов, Анатолий Эйрамджан

    Сюжет фильма
    После встречи двух школьных подруг Нади и Сусанны одна из них решает помочь другой найти счастье в личной жизни. Сусанна предлагает Наде различные методики с одной единственной целью - ее подруга должна начать нравиться другим мужчинам и, наконец, выйти замуж.

    Релиз подготовил:
    Качество фильма:HDTV (1080i)
    Информация о видео:MPEG-4 AVC, 11,1 Мбит/с, 1920x1080
    Информация о звуке:MP2, 2 ch, 192 Кбит/с
    Время просмотра:01:18:19
    Язык:Русский
    MediaINFO:
    Общее
    Идентификатор : 1 (0x1)
    Полное имя : C:Самая.обаятельная.и.привлекательная.(1985).HDTV.1080i.ts
    Формат : MPEG-TS
    Размер файла : 6,50 Гбайт
    Продолжительность : 1 ч. 18 м.
    Режим общего битрейта : Переменный
    Общий поток : 11,9 Мбит/сек
    Видео
    Идентификатор : 1603 (0x643)
    Идентификатор меню : 603 (0x25B)
    Формат : AVC
    Формат/Информация : Advanced Video Codec
    Профиль формата : High@L4.0
    Параметр CABAC формата : Да
    Параметр ReFrames формата : 3 кадра
    Параметр GOP формата : M=4, N=36
    Идентификатор кодека : 27
    Продолжительность : 1 ч. 18 м.
    Битрейт : 11,1 Мбит/сек
    Ширина : 1920 пикселей
    Высота : 1080 пикселей
    Соотношение сторон : 16:9
    Частота кадров : 25,000 кадров/сек
    Стандарт вещания : Component
    Цветовое пространство : YUV
    Субдискретизация насыщенности : 4:2:0
    Битовая глубина : 8 бит
    Тип развёртки : Чересстрочная
    Порядок развёртки : Верхнее поле первое
    Бит/(Пиксели*Кадры) : 0.214
    Размер потока : 6,07 Гбайт (93%)
    Основные цвета : BT.709
    Характеристики трансфера : BT.709
    Коэффициенты матрицы : BT.709
    colour_range : Limited
    Аудио
    Идентификатор : 2603 (0xA2B)
    Идентификатор меню : 603 (0x25B)
    Формат : MPEG Audio
    Версия формата : Version 1
    Профиль формата : Layer 2
    Идентификатор кодека : 3
    Продолжительность : 1 ч. 18 м.
    Вид битрейта : Постоянный
    Битрейт : 192 Кбит/сек
    Каналы : 2 канала
    Частота : 48,0 КГц
    Метод сжатия : С потерями
    Размер потока : 108 Мбайт (2%)
    Язык : Russian

    Скриншоты

    Залил: 777maks
    Размер скачиваемого торрента: 6.50 GB (6979249020 Bytes)

    Самая обаятельная и привлекательная (1985) HDTV (1080i)
    загрузка...
    Рейтинг →
     (голосов: 1, оценка 5/5, голосовать можно 1 раз )

    Другие торренты по теме:

  • Самая обаятельная и привлекательная / 1985 / РУ / HDTV (1080i)
  • Самая обаятельная и привлекательная (1985) HDTVRip 720р от ExKinoRay
  • Самая обаятельная и привлекательная / 1985 / РУ / HDTVRip (720p)
  • Самая обаятельная и привлекательная / 1985 / РУ / DVDRip (AVC)


    • Комментарии (0):

      Информация

      Информация

        Посетители, находящиеся в группе Гости, не могут оставлять комментарии в данной новости.

        ↓ Меню



        ↓ Опрос

        А Вы добавили сайт в закладки?
        Да
        Не


        Top 10 за месяц (Фильмы)