.
Авторизация | Регистрация
Хочешь лучшие торренты? Добавь свой email!
Добавить
» » Глубоководная звезда шесть / DeepStar Six (1988) BDRip-AVC | P, A скачать торрент бесплатно




    Глубоководная звезда шесть / DeepStar Six (1988) BDRip-AVC | P, A скачать торрент бесплатно

    Опубликовал: Админ | Дата: 6-03-2015, 17:00 | Просмотров: 138


    Создали в:США, Carolco Entertainment, Carolco Pictures Inc.
    Категория жанра:Фантастика, Ужасы
    Главный режиссер:Шон С. Каннингэм
    Актеры:Торин Блак, Нэнси Эверхард, Грег Эвиган, Мигель Феррер, Ниа Пиплз, Мэтт МакКой, Синди Пикетт, Мариус Вейерс, Илья Баскин, Том Брэй, Ронн Кэрролл, Крис Уолас
    Описание фильма:
    Команда подводников заканчивает полугодичную работу по обустройству специальной ракетной лаборатории, прозванной Глубоководная звезда шесть и создаваемую по заказу военных на дне одного из мировых океанов. Из-за такого долгого пребывания под водой, вся группа очень устала и нервы уже практически у всех на пределе. Но возвращение на поверхность не будет гарантированно никому, когда в результате обвала одной из глубинных пещер наружу вырвется нечто страшнее и опаснее всего того, что может только скрывать тьма в недрах океана...

    Время просмотра:01:39:38
    Качество фильма видео:BDRip
    Перевод текста:Профессиональный (многоголосый, закадровый)(R5), авторский (одноголосый, закадровый)
    Язык субтитров:Русский
    Вид субтитров:Вшитые
    Информация о видео:AVC, 1024x428 (2.35:1), 23.976 fps, 2 641 Kbps (0.251 bit/pixel)
    Информация о звуке #1:AC-3, 48.0 KHz, 2 ch, 192 Kbps, CBR (Russian) - Многоголосый
    Информация о звуке #2:AC-3 Dolby Digital, 48.0 KHz, 2 ch, 192 Kbps, CBR (Russian) - В.Горчаков
    Информация о звуке #3:AC-3 Dolby Digital, 48.0 KHz, 2 ch, 192 Kbps, CBR (Russian) - С.Кузнецов
    Информация о звуке #4:AC-3 Dolby Digital, 48.0 KHz, 2 ch, 192 Kbps, CBR (Russian) - П.Прямостанов
    Информация о звуке #5:AC-3, 48.0 KHz, 2 ch, 192 Kbps, CBR (English)
    Mediainfo:

    Format : Matroska
    Format version : Version 2
    File size : 2.56 GiB
    Duration : 1h 39mn
    Overall bit rate : 3 674 Kbps
    Encoded date : UTC 2015-03-04 11:21:14
    Writing application : mkvmerge v5.3.0 (;I could have danced;) built on Feb 9 2012 10:38:07
    Writing library : libebml v1.2.3 + libmatroska v1.3.0
    Attachment : Yes
    Video
    ID : 1
    Format : AVC
    Format/Info : Advanced Video Codec
    Format profile : High@L4.1
    Format settings, CABAC : Yes
    Format settings, ReFrames : 10 frames
    Codec ID : V_MPEG4/ISO/AVC
    Duration : 1h 39mn
    Bit rate : 2 641 Kbps
    Width : 1 024 pixels
    Height : 428 pixels
    Display aspect ratio : 2.40:1
    Frame rate mode : Constant
    Frame rate : 23.976 fps
    Color space : YUV
    Chroma subsampling : 4:2:0
    Bit depth : 8 bits
    Scan type : Progressive
    Bits/(Pixel*Frame) : 0.251
    Stream size : 1.84 GiB (72%)
    Writing library : x264 core 130 r2273 b3065e6
    Encoding settings : cabac=1/ref=10/deblock=1:-3:-3/analyse=0x3:0x133/me=umh/subme=10/psy=1/psy_rd=1.00:0.15/mixed_ref=1/me_range=32/chroma_me=1/trellis=2/8x8dct=1/cqm=0/deadzone=21,11/fast_pskip=0/chroma_qp_offset=-3/threads=12/lookahead_threads=2/sliced_threads=0/nr=0/decimate=0/interlaced=0/bluray_compat=0/constrained_intra=0/bframes=6/b_pyramid=2/b_adapt=2/b_bias=0/direct=3/weightb=1/open_gop=0/weightp=2/keyint=240/keyint_min=23/scenecut=40/intra_refresh=0/rc=crf/mbtree=0/crf=19.0/qcomp=0.60/qpmin=0/qpmax=69/qpstep=4/ip_ratio=1.40/pb_ratio=1.30/aq=1:1.00
    Default : Yes
    Forced : No
    Audio #1
    ID : 2
    Format : AC-3
    Format/Info : Audio Coding 3
    Mode extension : CM (complete main)
    Format settings, Endianness : Big
    Codec ID : A_AC3
    Duration : 1h 39mn
    Bit rate mode : Constant
    Bit rate : 192 Kbps
    Channel(s) : 2 channels
    Channel positions : Front: L R
    Sampling rate : 48.0 KHz
    Bit depth : 16 bits
    Compression mode : Lossy
    Stream size : 137 MiB (5%)
    Title : MVO ( R5 )
    Language : Russian
    Default : Yes
    Forced : No
    Audio #2
    ID : 3
    Format : AC-3
    Format/Info : Audio Coding 3
    Format profile : Dolby Digital
    Mode extension : CM (complete main)
    Format settings, Endianness : Big
    Codec ID : A_AC3
    Duration : 1h 39mn
    Bit rate mode : Constant
    Bit rate : 192 Kbps
    Channel(s) : 2 channels
    Channel positions : Front: L R
    Sampling rate : 48.0 KHz
    Bit depth : 16 bits
    Compression mode : Lossy
    Stream size : 137 MiB (5%)
    Title : AVO ( В. Горчаков )
    Language : Russian
    Default : No
    Forced : No
    Audio #3
    ID : 4
    Format : AC-3
    Format/Info : Audio Coding 3
    Format profile : Dolby Digital
    Mode extension : CM (complete main)
    Format settings, Endianness : Big
    Codec ID : A_AC3
    Duration : 1h 39mn
    Bit rate mode : Constant
    Bit rate : 192 Kbps
    Channel(s) : 2 channels
    Channel positions : Front: L R
    Sampling rate : 48.0 KHz
    Bit depth : 16 bits
    Compression mode : Lossy
    Stream size : 137 MiB (5%)
    Title : AVO ( С. Кузнецов )
    Language : Russian
    Default : No
    Forced : No
    Audio #4
    ID : 5
    Format : AC-3
    Format/Info : Audio Coding 3
    Format profile : Dolby Digital
    Mode extension : CM (complete main)
    Format settings, Endianness : Big
    Codec ID : A_AC3
    Duration : 1h 39mn
    Bit rate mode : Constant
    Bit rate : 192 Kbps
    Channel(s) : 2 channels
    Channel positions : Front: L R
    Sampling rate : 48.0 KHz
    Bit depth : 16 bits
    Compression mode : Lossy
    Stream size : 137 MiB (5%)
    Title : AVO ( П. Прямостанов )
    Language : Russian
    Default : No
    Forced : No
    Audio #5
    ID : 6
    Format : AC-3
    Format/Info : Audio Coding 3
    Mode extension : CM (complete main)
    Format settings, Endianness : Big
    Codec ID : A_AC3
    Duration : 1h 39mn
    Bit rate mode : Constant
    Bit rate : 192 Kbps
    Channel(s) : 2 channels
    Channel positions : Front: L R
    Sampling rate : 48.0 KHz
    Bit depth : 16 bits
    Compression mode : Lossy
    Stream size : 137 MiB (5%)
    Language : English
    Default : No
    Forced : No
    Text
    ID : 7
    Format : UTF-8
    Codec ID : S_TEXT/UTF8
    Codec ID/Info : UTF-8 Plain Text
    Language : Russian
    Default : No
    Forced : No
    Menu
    00:00:00.000 : en:00:00:00.000
    00:04:00.573 : en:00:04:00.573
    00:08:13.326 : en:00:08:13.326
    00:11:06.289 : en:00:11:06.289
    00:12:52.562 : en:00:12:52.562
    00:17:23.750 : en:00:17:23.750
    00:18:34.946 : en:00:18:34.946
    00:21:23.699 : en:00:21:23.699
    00:25:57.430 : en:00:25:57.430
    00:30:24.239 : en:00:30:24.239
    00:32:36.621 : en:00:32:36.621
    00:39:25.612 : en:00:39:25.612
    00:48:35.996 : en:00:48:35.996
    00:53:02.637 : en:00:53:02.637
    01:00:07.061 : en:01:00:07.061
    01:04:02.838 : en:01:04:02.838
    01:10:59.337 : en:01:10:59.337
    01:16:50.314 : en:01:16:50.314
    01:19:21.213 : en:01:19:21.213
    01:21:31.761 : en:01:21:31.761
    01:22:19.225 : en:01:22:19.225
    01:26:12.667 : en:01:26:12.667
    01:30:29.631 : en:01:30:29.631
    01:36:16.686 : en:01:36:16.686
    Скриншоты


    Размер скачиваемого торрента: 2.56 GB (2745513298 Bytes)

    Глубоководная звезда шесть/DeepStar Six (1988) BDRip-AVC | P, A
    загрузка...
    Рейтинг →
     (голосов: 1, оценка 5/5, голосовать можно 1 раз )

    Другие торренты по теме:

  • Глубоководная звезда шесть / DeepStar Six (1988) DVDRip
  • Глубоководная звезда шесть / DeepStar Six (1988) BDRip 720p
  • Глубоководная звезда шесть / DeepStar Six (1988) BDRip-AVC от k.e.n NNMClub | P, A


    • Комментарии (0):

      Информация

      Информация

        Посетители, находящиеся в группе Гости, не могут оставлять комментарии в данной новости.

        ↓ Меню



        ↓ Опрос

        А Вы добавили сайт в закладки?
        Да
        Не


        Top 10 за месяц (Фильмы)