.
Авторизация | Регистрация
Хочешь лучшие торренты? Добавь свой email!
Добавить
» » Медвежатник / The Score (2001) BDRip 1080p by msltel | 2 x P, 3 x A скачать торрент бесплатно




    Медвежатник / The Score (2001) BDRip 1080p by msltel | 2 x P, 3 x A скачать торрент бесплатно

    Опубликовал: Админ | Дата: 6-03-2015, 12:00 | Просмотров: 97


    Создали в: 2001
    Снималось в: США, Германия
    Категория жанра: боевик, триллер, криминал
    Время просмотра: 02:04:06
    Перевод текста: профессиональный многоголосый, авторский
    Субтитры: русские, английские (все отдельно)
    Главный режиссёр: Фрэнк Оз

    Актеры
    Роберт Де Ниро, Эдвард Нортон, Марлон Брандо, Анджела Бассетт, Пол Соулз, Гэри Фармер, Джейми Харролд, Ричард Во, Марк Камачо, Джеймс Спэйдер, Лесли Стефансон, Джон Ливингстон, Кристиан Тессьер, Роберт Миано, Альф Хамфриз, Тим Генри, Ричард Земан, Скотт Хайндл, Алекс Захара, Алвин Сандерс, Морис Демерс, Синди Мэйнс, Кэрин Коновал, Леонард Джордж, Ричард Ян Кокс, Кэтрин Керкпатрик, Тин Труонг Нгуйен, Дэнни Уэттли, Джей Крамер, Майкл Робердс, Элан Росс Гибсон, Пьер Дролет, Кеннет Дж. МакИнтайр, Эллен Кеннеди, Далиас Блэйк, Кит Даллас, Серж Уд, Мартин Дрэйнвилл, Лиза Мари Блэр, Дэвид Л. МакКаллум, Анджело Царучас, Эндрю Уокер
    Описание: Ник Уэллс - профессиональный вор, решивший отойти от дел после того, как его чуть было не поймали во время последнего дела. Теперь он живёт в Монреале, владеет джаз-клубом и наслаждается жизнью со своей невестой. Однако бывший партнёр по нелегальному бизнесу предлагает Нику выкрасть старинный и бесценный французский скипетр, перед отправкой во Францию хранящийся в монреальской таможне. Нику придётся работать в паре с молодым и агрессивным вором Джеком Теллером, который собирается сделать всё возможное, чтобы после этого дела Ник остался ни с чем...

    Качество фильма: BDRip 1080pСравнение с исходником
    Тип видео: MKV
    Информация о видео кодек: H.264
    Информация о звуке кодек: AC3, DTS
    Информация о видео: 9890 Кбит/с, 1920x816, 23.976 кадра/с, 0.263 bpp
    Информация о звуке 1:русский, DTS, 1509 kbps, 6 ch, 48 kHz профессиональный многоголосый, Позитив-Мультимедиа
    Информация о звуке 2:русский, AC3, 448 kbps, 6 ch, 48 kHz профессиональный многоголосый
    Информация о звуке 3:русский, DTS, 1509 kbps, 6 ch, 48 kHz авторский, Андрей Гаврилов
    Информация о звуке 4:русский, DTS, 1509 kbps, 6 ch, 48 kHz авторский, Василий Горчаков
    Информация о звуке 5:русский, DTS, 1509 kbps, 6 ch, 48 kHz авторский, Юрий Живов
    Отдельные файлы
    Информация о звуке:русский, AC3, 448 kbps, 6 ch, 48 kHz профессиональный многоголосый, Позитив-Мультимедиа
    Информация о звуке:русский, AC3, 448 kbps, 6 ch, 48 kHz авторский, Андрей Гаврилов
    Информация о звуке:русский, AC3, 448 kbps, 6 ch, 48 kHz авторский, Василий Горчаков
    Информация о звуке:русский, AC3, 448 kbps, 6 ch, 48 kHz авторский, Юрий Живов
    Информация о звуке:английский, DTS, 1509 kbps, 6 ch, 48 kHz оригинал
    Имеются неименованные главы/чаптеры.
    Кванты и MediaInfo
    frame I:1069 Avg QP:17.14 size:191994
    frame P:36295 Avg QP:18.36 size:101661
    frame B:141172 Avg QP:20.42 size: 39775
    Общее
    Полное имя : D:VideoMedvegatnik.2001.BDRip.1080pMedvegatnik.2001.AVO.rus.А.Гаврилов.ac3
    Формат : AC-3
    Формат/Информация : Audio Coding 3
    Размер файла : 398 Мбайт
    Продолжительность : 2 ч. 4 м.
    Режим общего битрейта : Постоянный
    Общий поток : 448 Кбит/сек
    Аудио
    Формат : AC-3
    Формат/Информация : Audio Coding 3
    Расширение режима : CM (complete main)
    Параметр Endianness формата : Big
    Продолжительность : 2 ч. 4 м.
    Вид битрейта : Постоянный
    Битрейт : 448 Кбит/сек
    Каналы : 6 каналов
    Расположение каналов : Front: L C R, Side: L R, LFE
    Частота : 48,0 КГц
    Битовая глубина : 16 бит
    Метод сжатия : С потерями
    Размер потока : 398 Мбайт (100%)
    Общее
    Полное имя : D:VideoMedvegatnik.2001.BDRip.1080pMedvegatnik.2001.AVO.rus.В.Горчаков.ac3
    Формат : AC-3
    Формат/Информация : Audio Coding 3
    Размер файла : 398 Мбайт
    Продолжительность : 2 ч. 4 м.
    Режим общего битрейта : Постоянный
    Общий поток : 448 Кбит/сек
    Аудио
    Формат : AC-3
    Формат/Информация : Audio Coding 3
    Расширение режима : CM (complete main)
    Параметр Endianness формата : Big
    Продолжительность : 2 ч. 4 м.
    Вид битрейта : Постоянный
    Битрейт : 448 Кбит/сек
    Каналы : 6 каналов
    Расположение каналов : Front: L C R, Side: L R, LFE
    Частота : 48,0 КГц
    Битовая глубина : 16 бит
    Метод сжатия : С потерями
    Размер потока : 398 Мбайт (100%)
    Общее
    Полное имя : D:VideoMedvegatnik.2001.BDRip.1080pMedvegatnik.2001.AVO.rus.Ю.Живов.ac3
    Формат : AC-3
    Формат/Информация : Audio Coding 3
    Размер файла : 398 Мбайт
    Продолжительность : 2 ч. 4 м.
    Режим общего битрейта : Постоянный
    Общий поток : 448 Кбит/сек
    Аудио
    Формат : AC-3
    Формат/Информация : Audio Coding 3
    Расширение режима : CM (complete main)
    Параметр Endianness формата : Big
    Продолжительность : 2 ч. 4 м.
    Вид битрейта : Постоянный
    Битрейт : 448 Кбит/сек
    Каналы : 6 каналов
    Расположение каналов : Front: L C R, Side: L R, LFE
    Частота : 48,0 КГц
    Битовая глубина : 16 бит
    Метод сжатия : С потерями
    Размер потока : 398 Мбайт (100%)
    Общее
    Уникальный идентификатор : 210723805478807667472476113352996734809 (0x9E87EDBF10E92CF3BD6849231070C759)
    Полное имя : D:VideoMedvegatnik.2001.BDRip.1080pMedvegatnik.2001.BDRip.1080p.mkv
    Формат : Matroska
    Версия формата : Version 4/Version 2
    Размер файла : 14,5 Гбайт
    Продолжительность : 2 ч. 4 м.
    Общий поток : 16,7 Мбит/сек
    Дата кодирования : UTC 2015-03-06 03:21:40
    Программа кодирования : mkvmerge v7.7.0 (;Six Voices;) 64bit built on Feb 28 2015 23:39:33
    Библиотека кодирования : libebml v1.3.1 + libmatroska v1.4.2
    DURATION : 02:04:06.454000000
    NUMBER_OF_FRAMES : 698105
    NUMBER_OF_BYTES : 1404587328
    _STATISTICS_WRITING_APP : mkvmerge v7.7.0 (;Six Voices;) 64bit built on Feb 28 2015 23:39:33
    _STATISTICS_WRITING_DATE_UTC : 2015-03-06 03:21:40
    _STATISTICS_TAGS : BPS DURATION NUMBER_OF_FRAMES NUMBER_OF_BYTES
    Видео
    Идентификатор : 1
    Формат : AVC
    Формат/Информация : Advanced Video Codec
    Профиль формата : High@L4.1
    Параметр CABAC формата : Да
    Параметр ReFrames формата : 4 кадра
    Идентификатор кодека : V_MPEG4/ISO/AVC
    Продолжительность : 2 ч. 4 м.
    Битрейт : 9890 Кбит/сек
    Ширина : 1920 пикселей
    Высота : 816 пикселей
    Соотношение сторон : 2,35:1
    Режим частоты кадров : Постоянный
    Частота кадров : 23,976 кадра/сек
    Цветовое пространство : YUV
    Субдискретизация насыщенности : 4:2:0
    Битовая глубина : 8 бит
    Тип развёртки : Прогрессивная
    Бит/(Пиксели*Кадры) : 0.263
    Размер потока : 8,57 Гбайт (59%)
    Заголовок : BDRip -- STarankov
    Библиотека кодирования : x264 core 142 r2431 ac76440
    Залил: msltel
    Размер скачиваемого торрента: 17.34 GB (18622903372 Bytes)


    Медвежатник/The Score (2001) BDRip 1080p by msltel | 2 x P, 3 x A
    загрузка...
    Рейтинг →
     (голосов: 1, оценка 4/5, голосовать можно 1 раз )

    Другие торренты по теме:

  • Медвежатник / The Score (2001) HDRip от Scarabey | P
  • Медвежатник / The Score (2001) BDRip-AVC от New-Team скачать через торрент бесплатно
  • Медвежатник / The Score (2001) BDRip от New-Team скачать через торрент бесплатно
  • Медвежатник / The Score (2001) BDRip 1080p от denis 100 | P,A


    • Комментарии (0):

      Информация

      Информация

        Посетители, находящиеся в группе Гости, не могут оставлять комментарии в данной новости.

        ↓ Меню



        ↓ Опрос

        А Вы добавили сайт в закладки?
        Да
        Не


        Top 10 за месяц (Фильмы)