.
Авторизация | Регистрация
Хочешь лучшие торренты? Добавь свой email!
Добавить
» » Тени прошлого / Нарезчик / The Cutter (2005) DVDRip от Шкипер скачать торрент бесплатно




    Тени прошлого / Нарезчик / The Cutter (2005) DVDRip от Шкипер скачать торрент бесплатно

    Опубликовал: Админ | Дата: 6-03-2015, 11:00 | Просмотров: 145


    Детально о кино
    Русское название:Тени прошлого/Нарезчик
    Русское название в мировом прокате:The Cutter
    Создали в:2005
    Категория жанра:Боевик
    Главный режиссер:Уильям Таннен

    Актеры
    Чак Норрис,Берни Копелл, Джоанна Пакула, Дэниэл Бернхард, Тодд Дженсен

    Сюжет фильма

    Джон (Чак Норрис) был хорошим полицейским. Но ему пришлось слишком много убивать. Прошло время, и теперь Джон - частный сыщик, специализирующийся на розыске людей. Дирк - наемник, за которым охотится Интерпол, ФБР, ЦРУ и Моссад. Он выполняет заказ - ищет древний артефакт Доспехи Аарона, инкрустированные двумя огромными брильянтами. Двум профессионалам придется помериться силами...
    Снималось в:США
    Время просмотра:01:27:10
    Перевод текста:Профессиональный (многоголосый, закадровый)
    Файл
    Кодек для видео:XviD
    Качество фильма:DVDRip
    Информация о видео:640x480 (4:3) (1.33:1), 25 fps, XviD build 73 ~1057 kbps avg, 0.14 bit/pixel
    Информация о звуке:48 kHz, MPEG Layer 3, 2 ch, ~128.00 kbps avg
    Субтитры:Нет

    Семпл
    MI
    Общее
    Полное имя : D:ТоррентМОИ РИПЫThe CutterНарезчик_ DVDrip by Шкипер.avi
    Формат : AVI
    Формат/Информация : Audio Video Interleave
    Размер файла : 745 Мбайт
    Продолжительность : 1 ч. 27 м.
    Общий поток : 1195 Кбит/сек
    Программа кодирования : VirtualDubMod 1.5.10.3 | www.virtualdub-fr.org || (build 2550/release)
    Библиотека кодирования : VirtualDubMod build 2550/release
    Видео
    Идентификатор : 0
    Формат : MPEG-4 Visual
    Профиль формата : Advanced Simple@L5
    Параметр BVOP формата : 1
    Параметр QPel формата : Нет
    Параметр GMC формата : Без точки перехода
    Параметр матрицы формата : Default (MPEG)
    Идентификатор кодека : XVID
    Идентификатор кодека/Подсказка : XviD
    Продолжительность : 1 ч. 27 м.
    Битрейт : 1058 Кбит/сек
    Ширина : 640 пикселей
    Высота : 480 пикселей
    Соотношение сторон : 4:3
    Частота кадров : 25,000 кадров/сек
    Цветовое пространство : YUV
    Субдискретизация насыщенности : 4:2:0
    Битовая глубина : 8 бит
    Тип развёртки : Прогрессивная
    Метод сжатия : С потерями
    Бит/(Пиксели*Кадры) : 0.138
    Размер потока : 659 Мбайт (88%)
    Библиотека кодирования : XviD 73
    Аудио
    Идентификатор : 1
    Формат : MPEG Audio
    Версия формата : Version 1
    Профиль формата : Layer 3
    Режим : Joint stereo
    Расширение режима : MS Stereo
    Идентификатор кодека : 55
    Идентификатор кодека/Подсказка : MP3
    Продолжительность : 1 ч. 27 м.
    Вид битрейта : Постоянный
    Битрейт : 128 Кбит/сек
    Каналы : 2 канала
    Частота : 48,0 КГц
    Метод сжатия : С потерями
    Размер потока : 79,8 Мбайт (11%)
    Выравнивание : Соединение по промежуткам
    Продолжительность промежутка : 40 мс. (1,00 видеокадр)
    Время предзагрузки промежутка : 504 мс.
    Библиотека кодирования : LAME3.99r
    Залил: surikmas
    Размер скачиваемого торрента: 745.19 MB (781389824 Bytes)


    Тени прошлого/Нарезчик/The Cutter (2005) DVDRip от Шкипер
    загрузка...
    Рейтинг →
     (голосов: 1, оценка 4/5, голосовать можно 1 раз )

    Другие торренты по теме:

  • Призраки в Коннектикуте 2: Тени прошлого / The Haunting in Connecticut 2: Ghosts of Georgia (2013) WEB-DLRip | L2
  • Тени прошлого / The Cutter (2005) DVDRip-AVC | P
  • Призраки в Коннектикуте 2: Тени прошлого / The Haunting in Connecticut 2: Ghosts of Georgia (2013) BDRip-AVC от HELLYWOOD | Лицензия скачать через торрент бесплатно
  • Тени прошлого / Shadow Man (2006) DVDRip от FilmRus | P
  • Призраки в Коннектикуте 2: Тени прошлого / The Haunting in Connecticut 2: Ghosts of Georgi (2013) BDRip 1080 от SuperMin
  • Тени прошлого (1-8 серии из 8) / 2007 / РУ / 2 x DVD-9
  • Тени прошлого (Теневой человек) / Shadow Man / 2006 / 2 x ПМ / WEB-DL (720p)
  • Тени прошлого / Abilene (1999) SATRip | P2


    • Комментарии (0):

      Информация

      Информация

        Посетители, находящиеся в группе Гости, не могут оставлять комментарии в данной новости.

        ↓ Меню



        ↓ Опрос

        А Вы добавили сайт в закладки?
        Да
        Не


        Top 10 за месяц (Фильмы)