.
Авторизация | Регистрация
Хочешь лучшие торренты? Добавь свой email!
Добавить
» » Несносные боссы 2 / Horrible Bosses 2 (2014) BDRip 1080p | Лицензия скачать торрент бесплатно




    Несносные боссы 2 / Horrible Bosses 2 (2014) BDRip 1080p | Лицензия скачать торрент бесплатно

    Опубликовал: Админ | Дата: 6-03-2015, 00:00 | Просмотров: 203


    Детально о кино
    Русское название: Несносные боссы 2
    Русское название в мировом прокате: Horrible Bosses 2
    Создали в: 2014
    Категория жанра: комедия
    Главный режиссер: Шон Андерс

    Актеры
    Джейсон Бейтман, Джейсон Судейкис, Чарли Дэй, Крис Пайн, Дженнифер Энистон, Кристоф Вальц, Джейми Фокс, Кевин Спейси, Джонатан Бэнкс, Линдсей Слоун

    Сюжет фильма
    Ник, Дэйл и Курт решают сами стать боссами и открывают собственный бизнес. Но инвестор кидает их. Тогда они решают похитить его взрослого сына, чтобы получить выкуп и вернуть себе контроль над компанией.

    Снималось в: США
    Киностудия: BenderSpink, New Line Cinema, RatPac Entertainment
    Время просмотра: 01:48:26
    Перевод текста: Профессиональный (полное дублирование) Blu-ray CEE + Авторский (Дмитрий Пучков)
    Файл
    Тип видео: Matroska
    Информация о видео: 1920x800 at 23.976 fps, x264@L4.1, ~10.3 Мbps avg
    Aудио#1: Russian: 48 kHz, AC3, 3/2 (L,C,R,l,r) + LFE ch, ~448.00 kbps avg |Дубляж, Blu-ray CEE|
    Aудио#2: Russian: 48 kHz, AC3, 2/0 (L,R) ch, ~384.00 kbps avg |Авторский, Д.Пучков|
    Aудио#3: English: 48 kHz, DTS, 3/2 (L,C,R,l,r) + LFE ch, ~1509.00 kbps avg
    Субтитры: Russian, English
    MI
    General
    Unique ID : 180918720526394301394083244146762588017 (0x881BAD9A5584DC178536931121721F71)
    Complete name : Nesnosnye bossy 2.2014.BDRip.1080p.mkv
    Format : Matroska
    Format version : Version 4/Version 2
    File size : 10.0 GiB
    Duration : 1h 51mn
    Overall bit rate : 12.9 Mbps
    Encoded date : UTC 2015-03-05 19:22:25
    Writing application : mkvmerge v7.3.0 (;Nouages;) 64bit built on Oct 22 2014 18:53:34
    Writing library : libebml v1.3.0 + libmatroska v1.4.1
    Video
    ID : 1
    Format : AVC
    Format/Info : Advanced Video Codec
    Format profile : High@L4.1
    Format settings, CABAC : Yes
    Format settings, ReFrames : 5 frames
    Codec ID : V_MPEG4/ISO/AVC
    Duration : 1h 51mn
    Bit rate : 10.3 Mbps
    Width : 1 920 pixels
    Height : 800 pixels
    Display aspect ratio : 2.40:1
    Frame rate mode : Constant
    Frame rate : 23.976 fps
    Color space : YUV
    Chroma subsampling : 4:2:0
    Bit depth : 8 bits
    Scan type : Progressive
    Bits/(Pixel*Frame) : 0.279
    Stream size : 8.01 GiB (80%)
    Writing library : x264 core 144 r2525 40bb568
    Encoding settings : cabac=1/ref=5/deblock=1:-3:-3/analyse=0x3:0x133/me=umh/subme=11/psy=1/psy_rd=1.00:0.05/mixed_ref=1/me_range=32/chroma_me=1/trellis=2/8x8dct=1/cqm=0/deadzone=21,11/fast_pskip=0/chroma_qp_offset=-3/threads=6/lookahead_threads=1/sliced_threads=0/nr=0/decimate=1/interlaced=0/bluray_compat=0/constrained_intra=0/bframes=8/b_pyramid=2/b_adapt=2/b_bias=0/direct=3/weightb=1/open_gop=0/weightp=2/keyint=240/keyint_min=23/scenecut=40/intra_refresh=0/rc=crf/mbtree=0/crf=17.0/qcomp=0.60/qpmin=0/qpmax=69/qpstep=4/ip_ratio=1.40/pb_ratio=1.30/aq=1:0.90
    Language : English
    Default : Yes
    Forced : No
    Audio #1
    ID : 2
    Format : AC-3
    Format/Info : Audio Coding 3
    Mode extension : CM (complete main)
    Format settings, Endianness : Big
    Codec ID : A_AC3
    Duration : 1h 51mn
    Bit rate mode : Constant
    Bit rate : 448 Kbps
    Channel(s) : 6 channels
    Channel positions : Front: L C R, Side: L R, LFE
    Sampling rate : 48.0 KHz
    Bit depth : 16 bits
    Compression mode : Lossy
    Stream size : 357 MiB (3%)
    Language : Russian
    Default : Yes
    Forced : No
    Audio #2
    ID : 3
    Format : AC-3
    Format/Info : Audio Coding 3
    Mode extension : CM (complete main)
    Format settings, Endianness : Big
    Codec ID : A_AC3
    Duration : 1h 51mn
    Bit rate mode : Constant
    Bit rate : 384 Kbps
    Channel(s) : 2 channels
    Channel positions : Front: L R
    Sampling rate : 48.0 KHz
    Bit depth : 16 bits
    Compression mode : Lossy
    Stream size : 306 MiB (3%)
    Title : Дмитрий Пучков
    Language : Russian
    Default : No
    Forced : No
    Audio #3
    ID : 4
    Format : DTS
    Format/Info : Digital Theater Systems
    Mode : 16
    Format settings, Endianness : Big
    Codec ID : A_DTS
    Duration : 1h 51mn
    Bit rate mode : Constant
    Bit rate : 1 509 Kbps
    Channel(s) : 6 channels
    Channel positions : Front: L C R, Side: L R, LFE
    Sampling rate : 48.0 KHz
    Bit depth : 24 bits
    Compression mode : Lossy
    Stream size : 1.18 GiB (12%)
    Language : English
    Default : No
    Forced : No
    Text #1
    ID : 5
    Format : UTF-8
    Codec ID : S_TEXT/UTF8
    Codec ID/Info : UTF-8 Plain Text
    Title : Forced
    Language : Russian
    Default : Yes
    Forced : No
    Text #2
    ID : 6
    Format : UTF-8
    Codec ID : S_TEXT/UTF8
    Codec ID/Info : UTF-8 Plain Text
    Title : Full
    Language : Russian
    Default : No
    Forced : No
    Text #3
    ID : 7
    Format : UTF-8
    Codec ID : S_TEXT/UTF8
    Codec ID/Info : UTF-8 Plain Text
    Title : Full
    Language : English
    Default : No
    Forced : No
    Text #4
    ID : 8
    Format : UTF-8
    Codec ID : S_TEXT/UTF8
    Codec ID/Info : UTF-8 Plain Text
    Title : SDH
    Language : English
    Default : No
    Forced : No
    Menu
    00:00:00.000 : en:00:00:00.000
    00:06:52.161 : en:00:06:52.161
    00:18:51.880 : en:00:18:51.880
    00:28:37.548 : en:00:28:37.548
    00:38:21.798 : en:00:38:21.798
    00:47:15.748 : en:00:47:15.748
    00:56:34.014 : en:00:56:34.014
    01:05:24.168 : en:01:05:24.168
    01:13:48.340 : en:01:13:48.340
    01:21:49.988 : en:01:21:49.988
    01:29:31.865 : en:01:29:31.865
    01:36:27.322 : en:01:36:27.322
    01:39:43.143 : en:01:39:43.143
    Скриншоты

    Размер скачиваемого торрента: 10.03 GB (10771208279 Bytes)

    Несносные боссы 2/Horrible Bosses 2 (2014) BDRip 1080p | Лицензия
    загрузка...
    Рейтинг →
     (голосов: 1, оценка 4/5, голосовать можно 1 раз )

    Другие торренты по теме:

  • Несносные боссы / Horrible Bosses (2011) BDRip 720p от HELLYWOOD | Театральная версия / Theatrical Cut скачать через торрент бесплатно
  • Несносные боссы / Horrible Bosses (2011) BDRip 720p от Leonardo and Scarabey | Театральная версия
  • Несносные боссы 2 (2014) BDRip
  • Несносные боссы 2 / Horrible Bosses 2 (2014) WEBRip | Звук с TS
  • Несносные боссы 2 / Horrible Bosses 2 скачать через торрент бесплатно
  • Несносные боссы 2 / Horrible Bosses 2 (2014) WEBRip | Звук с TS
  • Несносные боссы 2 / Horrible Bosses 2 (2014) WEB-DLRip | iTunes
  • Несносные боссы 2 / Horrible Bosses 2 (2014) WEB-DLRip от Scarabey | iTunes


    • Комментарии (0):

      Информация

      Информация

        Посетители, находящиеся в группе Гости, не могут оставлять комментарии в данной новости.

        ↓ Меню



        ↓ Опрос

        А Вы добавили сайт в закладки?
        Да
        Не


        Top 10 за месяц (Фильмы)