.
Авторизация | Регистрация
Хочешь лучшие торренты? Добавь свой email!
Добавить




Клоун / Clown (2014) HDRip | L1 скачать торрент бесплатно

Опубликовал: Админ | Дата: 5-03-2015, 21:00 | Просмотров: 354


Русское название в мировом прокате:Clown
Русское название:Клоун
Категория жанра:Ужасы, драма
Сценарий:Кристофер Д. Форд, Джонатан Уоттс
Главный режиссёр:Джонатан Уоттс
Год:2014
В ролях:Петер Стормаре, Элай Рот, Лаура Аллен, Элизабет Уитмер, Кристиан Дистефано, Джон МакДональд, Джулия А. Лонг, Чак Шамата, Сара Схеффер, Энди Пауэрс

..Чтобы внести больше ярких впечатлений- в день рождения сына, отец решает переодеться в клоуна. Он нашел старый костюм и надел его. Праздник прошел весело. Но вот когда пришло время принять прежний облик, это оказалось непросто: костюм буквально прилип к мужчине. Все попытки избавиться от клоунского наряда причиняют заботливому отцу невыносимую боль. К тому же оказалось, что этот костюм проклят. Теперь каждый, кто его наденет, обречен приносить страдания и муки всем окружающим. Город начинают постигать кровавые убийства...
Снималось в:США, Канада
Время просмотра:01:39
Перевод текста:Любительский одноголосый закадровый ( den9040 )
Контейнер:AVI
Кодек для видео:XviD
Качество фильма:HDRip
Информация о видео:1700 Кбит/с, 720x400
Информация о звуке:AC3, 2 ch, 192 Кбит/с
Субтитры:Отсутствуют

Mediainfo:

Полное имя : Клоун Clown (2014) HDRipKloun. 2014. avi..avi
Формат : AVI
Формат/Информация : Audio Video Interleave
Размер файла : 1,31 Гбайт
Продолжительность : 1 ч. 39 м.
Общий поток : 1889 Кбит/сек
Программа кодирования : VirtualDubModRus 1.5.10.2 (build 2542/release)
Библиотека кодирования : VirtualDubMod build 2542/release
Видео
Идентификатор : 0
Формат : MPEG-4 Visual
Профиль формата : Advanced Simple@L5
Параметр BVOP формата : 2
Параметр QPel формата : Нет
Параметр GMC формата : Без точки перехода
Параметр матрицы формата : Default (H.263)
Режим смешивания : Сжатый битовый поток
Идентификатор кодека : XVID
Идентификатор кодека/Подсказка : XviD
Продолжительность : 1 ч. 39 м.
Битрейт : 1687 Кбит/сек
Ширина : 720 пикселей
Высота : 400 пикселей
Соотношение сторон : 16:9
Частота кадров : 23,976 кадра/сек
Цветовое пространство : YUV
Субдискретизация насыщенности : 4:2:0
Битовая глубина : 8 бит
Тип развёртки : Прогрессивная
Метод сжатия : С потерями
Бит/(Пиксели*Кадры) : 0.244
Размер потока : 1,17 Гбайт (89%)
Библиотека кодирования : XviD 66
Аудио
Идентификатор : 1
Формат : AC-3
Формат/Информация : Audio Coding 3
Расширение режима : CM (complete main)
Параметр Endianness формата : Big
Идентификатор кодека : 2000
Продолжительность : 1 ч. 39 м.
Вид битрейта : Постоянный
Битрейт : 192 Кбит/сек
Каналы : 2 канала
Расположение каналов : Front: L R
Частота : 48,0 КГц
Битовая глубина : 16 бит
Метод сжатия : С потерями
Размер потока : 136 Мбайт (10%)
Выравнивание : Разделение по промежуткам
Продолжительность промежутка : 42 мс. (1,00 видеокадр)
Время предзагрузки промежутка : 500 мс.

Залил: Spirit Summer
Размер скачиваемого торрента: 1.31 GB (1407078400 Bytes)

Клоун/Clown (2014) HDRip | L1
загрузка...
Рейтинг →
 (голосов: 1, оценка 4/5, голосовать можно 1 раз )

Другие торренты по теме:

  • Клоун / Klovnen (1917) TVRip | Sub
  • Александр Кошмарный - Клоун с баяном скачать через торрент бесплатно
  • Клоун / Clown (2014) WEB-DLRip | L1
  • Клоун / Clown (2014) WEB-DL 720p | L2, L1
  • Клоун / Clown (2014) HDRip-AVC | L1
  • Клоун / Clown (2014) WEB-DLRip от Некул
  • Клоун Шейкс / Shakes the Clown (1991) WEB-DL 720р | А
  • Мой любимый клоун / 1986 / РУ / DVB


    • Комментарии (0):

      Информация

      Информация

        Посетители, находящиеся в группе Гости, не могут оставлять комментарии в данной новости.

        ↓ Меню



        ↓ Опрос

        А Вы добавили сайт в закладки?
        Да
        Не


        Top 10 за месяц (Фильмы)