.
Авторизация | Регистрация
Хочешь лучшие торренты? Добавь свой email!
Добавить
» » Геракл / Hercules (2014) BDRip 720p | KinoGadget | iPad скачать торрент бесплатно




    Геракл / Hercules (2014) BDRip 720p | KinoGadget | iPad скачать торрент бесплатно

    Опубликовал: Админ | Дата: 4-03-2015, 22:00 | Просмотров: 191


    Создали в: 2014
    Снималось в: США
    Категория жанра: боевик, приключения
    Время просмотра: 01:38:04
    Перевод текста: Дублированный
    Главный режиссер: Бретт Рэтнер

    Актеры
    Дуэйн Джонсон, Аксель Хенни, Иэн МакШейн, Джон Хёрт, Руфус Сьюэлл, Ингрид Болсай Бердал, Рис Ричи, Джозеф Файнс, Тобиас Зантельман, Питер Муллан, Ребекка Фергюсон, Исаак Эндрюс, Джо Андерсон, Стивен Пикок, Николас Мосс, Роберт Уайтлок, Ирина Шейк, Кристофер Фэйрбэнк, Иэн Уайт
    Описание: Более тысячи лет назад измученная душа скиталась по Земле, полубог, получеловек — Геракл — могучий сын царя богов Зевса, совершив все 12 подвигов, потерял семью и теперь находит утешение только в кровавых битвах.
    За эти годы он собирает вокруг себя шестерых таких же потерянных воинов, единственным смыслом жизни для которых стали сражения и присутствие смертельной опасности. Эти мужчины и женщина никогда не задают вопрос, где, почему или с кем они идут сражаться; только, сколько им заплатят. Зная это, фракийский царь Котис нанимает этих воинов, чтобы они обучили его солдат и сделали из них самую сильную и великую армию всех времен.

    Информация о видео кодек:MPEG-4 AVC
    Качество фильма:BDRip 720p
    Параметры Видео:1280x528, 23.976 fps; ~2 465 kbps avg
    Параметры Звука:48.0 KHz, AAC, ~165.00 kbps avg, 2ch
    Тип видео:mp4
    Релиз:
    Meta Tags


    MI
    General
    Complete name : E:Gerakl.2014.D.BDRip.720p_KinoGadget.mp4
    Format : MPEG-4
    Format profile : Base Media
    Codec ID : isom
    File size : 1.81 GiB
    Duration : 1h 38mn
    Overall bit rate mode : Variable
    Overall bit rate : 2 639 Kbps
    Movie name : Геракл
    Performer : Бретт Рэтнер
    Genre : Action, Adventure
    ContentType : Short Film
    Recorded date : 2014
    Encoded date : UTC 2015-03-03 16:49:28
    Tagged date : UTC 2015-03-03 17:25:07
    Cover : Yes
    ContentRating : mpaa|PG-13|300|
    LongDeion : Более тысячи лет назад измученная душа скиталась по Земле, полубог, получеловек - Геракл - могучий сын царя богов Зевса, совершив все 12 подвигов, потерял семью и теперь находит утешение только в кровавых битвах.
    HDVideo : Yes
    Video
    ID : 1
    Format : AVC
    Format/Info : Advanced Video Codec
    Format profile : High@L4.1
    Format settings, CABAC : Yes
    Format settings, ReFrames : 10 frames
    Codec ID : avc1
    Codec ID/Info : Advanced Video Coding
    Duration : 1h 38mn
    Bit rate : 2 465 Kbps
    Maximum bit rate : 11.4 Mbps
    Width : 1 280 pixels
    Height : 528 pixels
    Display aspect ratio : 2.40:1
    Frame rate mode : Constant
    Frame rate : 23.976 fps
    Color space : YUV
    Chroma subsampling : 4:2:0
    Bit depth : 8 bits
    Scan type : Progressive
    Bits/(Pixel*Frame) : 0.152
    Stream size : 1.69 GiB (93%)
    Writing library : x264 core 142 r2431 ac76440
    Encoding settings : cabac=1/ref=10/deblock=1:-1:-1/analyse=0x3:0x133/me=umh/subme=10/psy=1/psy_rd=1.00:0.20/mixed_ref=1/me_range=24/chroma_me=1/trellis=2/8x8dct=1/cqm=0/deadzone=21,11/fast_pskip=1/chroma_qp_offset=-3/threads=3/lookahead_threads=1/sliced_threads=0/nr=0/decimate=1/interlaced=0/bluray_compat=0/constrained_intra=0/bframes=4/b_pyramid=2/b_adapt=2/b_bias=0/direct=3/weightb=1/open_gop=0/weightp=2/keyint=240/keyint_min=23/scenecut=40/intra_refresh=0/rc_lookahead=60/rc=crf/mbtree=1/crf=21.0/qcomp=0.60/qpmin=0/qpmax=69/qpstep=4/ip_ratio=1.40/aq=1:1.40
    Encoded date : UTC 2015-03-03 16:10:50
    Tagged date : UTC 2015-03-03 16:50:29
    Audio
    ID : 2
    Format : AAC
    Format/Info : Advanced Audio Codec
    Format profile : LC
    Codec ID : 40
    Duration : 1h 38mn
    Duration_FirstFrame : 64ms
    Bit rate mode : Variable
    Bit rate : 165 Kbps
    Maximum bit rate : 217 Kbps
    Channel count : 2 channels
    Channel positions : Front: L R
    Sampling rate : 48.0 KHz
    Compression mode : Lossy
    Stream size : 116 MiB (6%)
    Language : Russian
    Tagged date : UTC 2015-03-03 16:50:29

    Скриншоты


    Залил: KinoGadget
    Размер скачиваемого торрента: 1.81 GB (1940903403 Bytes)

    Геракл/Hercules (2014) BDRip 720p | KinoGadget | iPad
    загрузка...
    Рейтинг →
     (голосов: 1, оценка 5/5, голосовать можно 1 раз )

    Другие торренты по теме:

  • Геракл 3D / Hercules: The Legend Begins (2014) HD 720p | L1 | Трейлер
  • Геракл: Начало легенды скачать через торрент бесплатно
  • Геракл: Начало легенды / The Legend of Hercules (2014) CAMRip
  • Геракл: Начало легенды / The Legend of Hercules (2014) CAMRip от Goliaf
  • Геракл: Начало легенды / The Legend of Hercules (2014) CAMRip *PROPER*
  • OST - Геракл: Начало легенды / The Legend of Hercules (2014) MP3 скачать через торрент бесплатно
  • Геракл: Начало легенды / The Legend of Hercules (2014) WEBRip | Звук с CAMRip скачать через торрент бесплатно
  • Геракл: Начало легенды / The Legend of Hercules (2014) HDRip | Звук с CAMRip скачать через торрент бесплатно


    • Комментарии (0):

      Информация

      Информация

        Посетители, находящиеся в группе Гости, не могут оставлять комментарии в данной новости.

        ↓ Меню



        ↓ Опрос

        А Вы добавили сайт в закладки?
        Да
        Не


        Top 10 за месяц (Фильмы)