.
Авторизация | Регистрация
Хочешь лучшие торренты? Добавь свой email!
Добавить




Бёрдмэн / Birdman (2014) DVD5 скачать торрент бесплатно

Опубликовал: Админ | Дата: 2-03-2015, 18:00 | Просмотров: 92


Создали в:2014
Создали в:США, Канада/Le Grisbi Productions, M Prods, New Regency Pictures, TSG Entertainment, Worldview Entertainment
Категория жанра:Драма, комедия
Главный режиссер:Алехандро Гонсалес Иньярриту
Продюсеры:Джон Лешер, Арнон Милчен, Джеймс В. Скотчдопоул
Актеры:Майкл Китон, Эдвард Нортон, Эмма Стоун, Наоми Уоттс, Зак Галифианакис, Андреа Райзборо, Эми Райан, Линдси Дункан, Дэмиэн Янг, Джереми Шамос
Описание фильма:
В центре сюжета бывший актер, некогда сыгравший роль популярного супергероя Бёрдмэна, и теперь, переступая через свое эго, он решает принять участие в новой бродвейской постановке с целью вернуть себе былую славу, блеск и величие.
Перевод текста:Дублированный
Субтитры:Вшитые отключаемые
Язык субтитров:Английский, русский
Дата мировой премьеры:27 августа 2014
Дата российской премьеры:22 января 2015, Двадцатый Век Фокс СНГ
Дата выхода DVD релиза:5 марта 2015, Двадцатый Век Фокс СНГ
Время просмотра:01:59:10
Качество фильма видео:DVD5
Информация о видео:MPEG-2, 720x480@853x480 (NTSC 16:9), ~3075 Кбит/сек
Информация о звуке 1:AC3 5.1, 448 Кбит/сек Английский - оригинал
Информация о звуке 2:AC3 5.1, 384 Кбит/сек Английский - комментарии
Информация о звуке 3:AC3 5.1, 448 Кбит/сек Русский - дублированный
Доп. материалы:Смотрите на скриншоте меню
DVDInfo:
Title: Birdman (2014) DVD5 NTSC
Size: 4.37 Gb ( 4 586 106,00 KBytes ) - DVD-5
Enabled regions: 1, 2, 3, 4, 5, 6, 7, 8
VTS_01 :
Play Length: 01:59:10
Video: NTSC 16:9 (720x480) VBR, Auto Letterboxed
Audio:
English (Dolby AC3, 6 ch)
English (Dolby AC3, 6 ch)
Russian (Dolby AC3, 6 ch)
Subtitles:
English
Russian
Russian
VTS_02 :
Play Length: 00:00:01
Video: NTSC 16:9 (720x480) VBR, Auto Letterboxed
Audio:
English (Dolby AC3, 6 ch)
VTS_03 :
Play Length: 00:00:01
Video: NTSC 16:9 (720x480) VBR, Auto PanScan
Audio:
Not specified (Dolby AC3, 2 ch)
VTS_04 :
Play Length: 00:00:01
Video: NTSC 16:9 (720x480) VBR, Auto PanScan
Audio:
Not specified (Dolby AC3, 2 ch)
VTS_05 :
Play Length: 00:00:00+{00:00:00}+00:00:02+00:00:02+{00:00:00}+{00:00:00}+00:00:00+00:00:00+00:00:00+00:00:00
Video: NTSC 16:9 (720x480) VBR, Auto PanScan
Audio:
Not specified (Dolby AC3, 2 ch)
VTS_06 :
Play Length: 00:00:01
Video: NTSC 16:9 (720x480) VBR, Auto Letterboxed
VTS_07 :
Play Length: 00:00:00+00:00:22+00:03:31
Video: NTSC 16:9 (720x480) VBR, Auto PanScan
Audio:
Not specified (Dolby AC3, 2 ch)
Subtitles:
Not specified
VTS_08 :
Play Length: 00:33:27
Video: NTSC 16:9 (720x480) VBR, Auto Letterboxed
Audio:
English (Dolby AC3, 2 ch)
* Menus Information *
VIDEO_TS Menu
Video:
NTSC 16:9 (720x480) VBR
Auto PanScan
English Language Unit :
Title Menu
VTS_01 Menu
Video:
NTSC 16:9 (720x480) VBR
Auto PanScan
Audio:
Not specified (Dolby AC3, 6 ch)
English Language Unit :
Root Menu
Subpicture Menu
Audio Menu
Angle menu
Chapter (PTT) Menu
VTS_02 Menu
Video:
NTSC 16:9 (720x480) VBR
Auto PanScan
English Language Unit :
Root Menu
VTS_03 Menu
Video:
NTSC 16:9 (720x480) VBR
Auto PanScan
English Language Unit :
Root Menu
VTS_04 Menu
Video:
NTSC 16:9 (720x480) VBR
Auto PanScan
English Language Unit :
Root Menu
Subpicture Menu
VTS_05 Menu
Video:
NTSC 16:9 (720x480) VBR
Auto PanScan
English Language Unit :
Root Menu
VTS_06 Menu
Video:
NTSC 16:9 (720x480) VBR
Auto PanScan
English Language Unit :
Root Menu
VTS_07 Menu
Video:
NTSC 16:9 (720x480) VBR
Auto PanScan
English Language Unit :
Root Menu
Subpicture Menu
VTS_08 Menu
Video:
NTSC 16:9 (720x480) VBR
Auto PanScan
English Language Unit :
Root Menu
Subpicture Menu
MediaInfo:
Общее
Полное имя : G:ВидеоBirdman (2014) DVD5 NTSCVIDEO_TSVTS_01_1.VOB
Формат : MPEG-PS
Размер файла : 1024 Мбайт
Продолжительность : 32 м.
Режим общего битрейта : Переменный
Общий поток : 4443 Кбит/сек
Видео
Идентификатор : 224 (0xE0)
Формат : MPEG Video
Версия формата : Version 2
Профиль формата : Main@Main
Параметр BVOP формата : Да
Параметр матрицы формата : Выборочная
Параметр GOP формата : Variable
Продолжительность : 32 м.
Вид битрейта : Переменный
Битрейт : 3075 Кбит/сек
Максимальный битрейт : 7900 Кбит/сек
Ширина : 720 пикселей
Высота : 480 пикселей
Соотношение сторон : 16:9
Частота кадров : 23,976 кадра/сек
Стандарт вещания : NTSC
Цветовое пространство : YUV
Субдискретизация насыщенности : 4:2:0
Битовая глубина : 8 бит
Тип развёртки : Прогрессивная
Порядок развёртки : 2:3 Pulldown
Метод сжатия : С потерями
Бит/(Пиксели*Кадры) : 0.371
Временной код первого кадра : 01:00:04;00
Оригинал временного кода : Group of pictures t_head
Размер потока : 709 Мбайт (69%)
Аудио #1
Идентификатор : 189 (0xBD)-128 (0x80)
Формат : AC-3
Формат/Информация : Audio Coding 3
Расширение режима : CM (complete main)
Параметр Endianness формата : Big
Режим смешивания : DVD-Video
Продолжительность : 32 м.
Вид битрейта : Постоянный
Битрейт : 448 Кбит/сек
Каналы : 6 каналов
Расположение каналов : Front: L C R, Side: L R, LFE
Частота : 48,0 КГц
Битовая глубина : 16 бит
Метод сжатия : С потерями
Размер потока : 103 Мбайт (10%)
Аудио #2
Идентификатор : 189 (0xBD)-129 (0x81)
Формат : AC-3
Формат/Информация : Audio Coding 3
Расширение режима : CM (complete main)
Параметр Endianness формата : Big
Режим смешивания : DVD-Video
Продолжительность : 32 м.
Вид битрейта : Постоянный
Битрейт : 384 Кбит/сек
Каналы : 6 каналов
Расположение каналов : Front: L C R, Side: L R, LFE
Частота : 48,0 КГц
Битовая глубина : 16 бит
Метод сжатия : С потерями
Размер потока : 88,5 Мбайт (9%)
Аудио #3
Идентификатор : 189 (0xBD)-130 (0x82)
Формат : AC-3
Формат/Информация : Audio Coding 3
Расширение режима : CM (complete main)
Параметр Endianness формата : Big
Режим смешивания : DVD-Video
Продолжительность : 32 м.
Вид битрейта : Постоянный
Битрейт : 448 Кбит/сек
Каналы : 6 каналов
Расположение каналов : Front: L C R, Side: L R, LFE
Частота : 48,0 КГц
Битовая глубина : 16 бит
Метод сжатия : С потерями
Размер потока : 103 Мбайт (10%)
Текст #1
Идентификатор : 189 (0xBD)-32 (0x20)
Формат : RLE
Формат/Информация : Run-length encoding
Режим смешивания : DVD-Video
Продолжительность : 31 м.
Задержка видео : 27 с.
Текст #2
Идентификатор : 224 (0xE0)-CC3
Формат : EIA-608
Режим смешивания, доп. информация : Muxed in Video #1
Вид битрейта : Постоянный
Размер потока : 0,00 байт (0%)
Текст #3
Идентификатор : 189 (0xBD)-33 (0x21)
Формат : RLE
Формат/Информация : Run-length encoding
Режим смешивания : DVD-Video
Меню
Доп. информация:
Исходником послужил зарубежный DVD5. Испанскую и французскую звуковую дорожку заменил на русскую вместе с субтитрами. Меню анимированное на английском языке. Предупреждающие надписи удалил.
Использовались программы: MKVExtractGUI2, DVD ReMake Pro, PgcDemux, Adobe PhotoShop, MuxMan, Subtitle Workshop, MaestroSBT, DVDSubEdit
Скриншоты меню:

Скриншоты:

Залил: Саша 1992
Размер скачиваемого торрента: 4.37 GB (4696172544 Bytes)

Бёрдмэн/Birdman (2014) DVD5
загрузка...
Рейтинг →
 (голосов: 1, оценка 3/5, голосовать можно 1 раз )

Другие торренты по теме:

  • Бёрдмэн / Birdman (2014) DVDScr | Sub скачать через торрент бесплатно
  • Бёрдмэн (2015)
  • Бёрдмэн / Birdman (2014) WEB-DLRip | Чистый звук скачать через торрент бесплатно
  • Бёрдмэн / Birdman (2014) WEB-DL 720p | Чистый звук скачать через торрент бесплатно
  • Бёрдмэн / Birdman (2014) HDRip | Чистый звук
  • Бёрдмэн / Birdman (2014) BDRip-AVC от New-Team | D | Чистый звук
  • Бёрдмэн / Birdman (2014) BDRip 720p | A
  • Бёрдмэн / Birdman (2014) HDRip | iTunes скачать через торрент бесплатно


    • Комментарии (0):

      Информация

      Информация

        Посетители, находящиеся в группе Гости, не могут оставлять комментарии в данной новости.

        ↓ Меню



        ↓ Опрос

        А Вы добавили сайт в закладки?
        Да
        Не


        Top 10 за месяц (Фильмы)