.
Авторизация | Регистрация
Хочешь лучшие торренты? Добавь свой email!
Добавить
» » Курт Сеит и Александра / Kurt Seyit ve Sura (2014) WEB-DLRip | D скачать торрент бесплатно




    Курт Сеит и Александра / Kurt Seyit ve Sura (2014) WEB-DLRip | D скачать торрент бесплатно

    Опубликовал: Админ | Дата: 1-03-2015, 17:00 | Просмотров: 170


    Детально о кино
    Русское название:Курт Сеит и Александра/Курт Сеит и Шура
    Русское название в мировом прокате:Kurt Seyit ve Sura
    Создали в:2014
    Категория жанра:драма, мелодрама, военный, история
    Главный режиссер:Хилаль Сарал

    Актеры
    Кыванч Татлытуг, Фара Зейнеп Абдулла, Berk Er?er, Сердар Гёкхан, Седа Гувен, Sarp Can K?roglu, Биркан Сокуллу, Ushan ?akir, Сергей Тэсслер

    Сюжет фильма

    Герои переживут крах правящей царской династии и Октябрьскую революцию. На фоне этих исторических событий, полных трагизма, горьких утрат, жестоких разочарований, и развернется история любви между бывшим офицером Царской армии лейтенантом Куртом Сеитом и шестнадцатилетней девушкой из аристократического рода Шурой.
    Официальный сайт
    Снималось в:Турция
    Киностудия:Ay Yapim, Star TV
    Время просмотра:~ 01:30:00 серия
    Перевод текста:Професиональный (полное дублирование)Дубляж выполнен студией СВ-Дубль по заказу телеканала Домашний
    Файл
    Кодек для видео:XviD/MP3
    Качество фильма:WEB-DLRip
    Информация о видео:MPEG4, XviD, 720x400 (16:9), 25.000 fps, 1 312 Kbps (0.182 bit/pixel)
    Информация о звуке:MP3, 44.1 KHz, 2 ch, 128 Kbps, CBR
    Скриншоты
    Screenshots
    MediaInfo
    General
    Complete name : /KurtSeyitVeSura.S01/Kurt Seyit ve Sura.s01.e01.avi
    Format : AVI
    Format/Info : Audio Video Interleave
    File size : 904 MiB
    Duration : 1h 27mn
    Overall bit rate : 1 450 Kbps
    Writing application : VirtualDubModRus 1.5.10.2 (build 2542/release)
    Writing library : VirtualDubMod build 2542/release
    TCOD : 0
    TCDO : 52336400000
    Video
    ID : 0
    Format : MPEG-4 Visual
    Format profile : Advanced Simple@L5
    Format settings, BVOP : 2
    Format settings, QPel : No
    Format settings, GMC : No warppoints
    Format settings, Matrix : Default (H.263)
    Muxing mode : Packed bitstream
    Codec ID : XVID
    Codec ID/Hint : XviD
    Duration : 1h 27mn
    Bit rate : 1 312 Kbps
    Width : 720 pixels
    Height : 400 pixels
    Display aspect ratio : 16:9
    Frame rate : 25.000 fps
    Color space : YUV
    Chroma subsampling : 4:2:0
    Bit depth : 8 bits
    Scan type : Progressive
    Compression mode : Lossy
    Bits/(Pixel*Frame) : 0.182
    Stream size : 818 MiB (91%)
    Writing library : XviD 73
    Audio
    ID : 1
    Format : MPEG Audio
    Format version : Version 1
    Format profile : Layer 3
    Mode : Joint stereo
    Mode extension : MS Stereo
    Codec ID : 55
    Codec ID/Hint : MP3
    Duration : 1h 27mn
    Bit rate mode : Constant
    Bit rate : 128 Kbps
    Channel(s) : 2 channels
    Sampling rate : 44.1 KHz
    Compression mode : Lossy
    Stream size : 79.9 MiB (9%)
    Alignment : Split accross interleaves
    Interleave, duration : 40 ms (1.00 video frame)
    Interleave, preload duration : 500 ms

    Размер скачиваемого торрента: 2.42 GB (2595307520 Bytes)

    Курт Сеит и Александра/Kurt Seyit ve Sura (2014) WEB-DLRip | D
    загрузка...
    Рейтинг →
     (голосов: 1, оценка 5/5, голосовать можно 1 раз )

    Другие торренты по теме:

  • Курт Сеит и Шура / Kurt Seyit ve Sura (2014) HDTVRip | L
  • Курт Сеит и Александра / Kurt Seyit ve Sura (2014) WEB-DLRip | D
  • Курт Сеит и Александра / Kurt Seyit ve Sura (2014) SATRip | D


    • Комментарии (0):

      Информация

      Информация

        Посетители, находящиеся в группе Гости, не могут оставлять комментарии в данной новости.

        ↓ Меню



        ↓ Опрос

        А Вы добавили сайт в закладки?
        Да
        Не


        Top 10 за месяц (Фильмы)