.
Авторизация | Регистрация
Хочешь лучшие торренты? Добавь свой email!
Добавить




Сабухи (1941) SATRip от New-Team скачать торрент бесплатно

Опубликовал: Админ | Дата: 27-02-2015, 14:00 | Просмотров: 141


Снималось в: СССР
Создали в: Бакинская киностудия художественных фильмов
Категория жанра: драма, биография
Создали в: 1941
Время просмотра: 01:27:50
Перевод текста:Не требуется
Субтитры подготовлены: нет
Оригинальная аудиодорожка: русский
Главный режиссер: Рза Тахмасиб

Актеры

Исмаил Дагестанлы, Лейла Бадирбейли (Джаванширова), Исмаил Эфендиев, Гусейн Кули Сарабский, Мовсун Санани, Кязим Зия, А. Шарифов, Владимир Белокуров, Агададаш Курбанов, Леван Хотивари, Иван Перестиани, Хайри Эмир-заде, А. Гасанов, Константин Пипинашвили, Анатолий Смиранин, Ахмед Комарлинский, Рза Дараблы, Зульфи Адыгёзалов...
Описание:
Посвящается жизни и творческой деятельности великого азербайджанского просветителя, драматурга и философа Мирза Фатали Ахундова, прозванного в народе Сабухи, что означает человек утра.



Источник:DVB
Качество фильма видео:SATRip
Тип видео видео: AVI
Информация о видео: 720x400 (4:3), 25 fps, XviD ~ 1048 kbps avg, 0.146 bit/pixel
Информация о звуке: 48 kHz, MP3 2.0, 128 kbps
Раздача от:
MediaInfo

Общее
Полное имя : Sabuhi.1942.SATRip-745_New-team_by_AVP_Studio.avi
Формат : AVI
Формат/Информация : Audio Video Interleave
Размер файла : 745 Мбайт
Продолжительность : 1 ч. 27 м.
Общий поток : 1186 Кбит/сек
Программа кодирования : VirtualDubModRus 1.5.10.2 (build 2542/release)
Библиотека кодирования : VirtualDubMod build 2542/release
Видео
Идентификатор : 0
Формат : MPEG-4 Visual
Профиль формата : Advanced Simple@L5
Параметр BVOP формата : 1
Параметр QPel формата : Нет
Параметр GMC формата : Без точки перехода
Параметр матрицы формата : Выборочная
Идентификатор кодека : XVID
Идентификатор кодека/Подсказка : XviD
Продолжительность : 1 ч. 27 м.
Битрейт : 1048 Кбит/сек
Ширина : 720 пикселей
Высота : 400 пикселей
Соотношение сторон : 16:9
Частота кадров : 25,000 кадров/сек
Цветовое пространство : YUV
Субдискретизация насыщенности : 4:2:0
Битовая глубина : 8 бит
Тип развёртки : Прогрессивная
Метод сжатия : С потерями
Бит/(Пиксели*Кадры) : 0.146
Размер потока : 658 Мбайт (88%)
Библиотека кодирования : XviD 73
Аудио
Идентификатор : 1
Формат : MPEG Audio
Версия формата : Version 1
Профиль формата : Layer 3
Идентификатор кодека : 55
Идентификатор кодека/Подсказка : MP3
Продолжительность : 1 ч. 27 м.
Вид битрейта : Постоянный
Битрейт : 128 Кбит/сек
Каналы : 2 канала
Частота : 48,0 КГц
Метод сжатия : С потерями
Размер потока : 80,4 Мбайт (11%)
Выравнивание : Соединение по промежуткам
Продолжительность промежутка : 40 мс. (1,00 видеокадр)
Время предзагрузки промежутка : 504 мс.
Библиотека кодирования : LAME3.99r
Залил: AVPStudio
Размер скачиваемого торрента: 744.80 MB (780978176 Bytes)


Сабухи (1941) SATRip от New-Team
загрузка...
Рейтинг →
 (голосов: 1, оценка 3/5, голосовать можно 1 раз )

Другие торренты по теме:



    Комментарии (0):

    Информация

    Информация

      Посетители, находящиеся в группе Гости, не могут оставлять комментарии в данной новости.

      ↓ Меню



      ↓ Опрос

      А Вы добавили сайт в закладки?
      Да
      Не


      Top 10 за месяц (Фильмы)