.
Авторизация | Регистрация
Хочешь лучшие торренты? Добавь свой email!
Добавить
» » Клятва Тимура (1942) DVDRip от New-Team скачать торрент бесплатно




    Клятва Тимура (1942) DVDRip от New-Team скачать торрент бесплатно

    Опубликовал: Админ | Дата: 27-02-2015, 11:10 | Просмотров: 172


    Снималось в: СССР
    Создали в: Мосфильм
    Категория жанра: драма, мелодрама, военный
    Создали в: 1942
    Время просмотра: 01:11:59
    Перевод текста:Не требуется
    Субтитры подготовлены: нет
    Оригинальная аудиодорожка: русский
    Главный режиссер: Юлий Райзман

    Актеры

    Валентина Караваева, Михаил Кузнецов, Дарья Панкратова, Вера Алтайская, Георгий Светлани, Николай Гриценко, Владислав Стржельчик...
    Описание:
    Маша и Алексей любили друг друга, но легкомысленный Алексей не сумел сберечь свою любовь. Они расстались и снова встретились лишь через несколько лет, на фронте. Только тогда Алексей понял, каким сокровищем для него была Машенька. Но война вновь разлучила их…



    Источник:DVB
    Качество фильма видео:SATRip
    Тип видео видео: AVI
    Информация о видео: 672x496 (4:3), 25 fps, XviD ~ 1244 kbps avg, 0.149 bit/pixel
    Информация о звуке: 48 kHz, Dolby Digital AC3 2.0, 192 kbps
    Раздача от:
    MediaInfo

    Общее
    Полное имя : Mashenka.1942.SATRip_New-team_by_AVP_Studio.avi
    Формат : AVI
    Формат/Информация : Audio Video Interleave
    Размер файла : 744 Мбайт
    Продолжительность : 1 ч. 11 м.
    Общий поток : 1445 Кбит/сек
    Программа кодирования : VirtualDubModRus 1.5.10.2 (build 2542/release)
    Библиотека кодирования : VirtualDubMod build 2542/release
    Видео
    Идентификатор : 0
    Формат : MPEG-4 Visual
    Профиль формата : Advanced Simple@L5
    Параметр BVOP формата : 1
    Параметр QPel формата : Нет
    Параметр GMC формата : Без точки перехода
    Параметр матрицы формата : Выборочная
    Идентификатор кодека : XVID
    Идентификатор кодека/Подсказка : XviD
    Продолжительность : 1 ч. 11 м.
    Битрейт : 1244 Кбит/сек
    Ширина : 672 пикселя
    Высота : 496 пикселей
    Соотношение сторон : 4:3
    Частота кадров : 25,000 кадров/сек
    Цветовое пространство : YUV
    Субдискретизация насыщенности : 4:2:0
    Битовая глубина : 8 бит
    Тип развёртки : Прогрессивная
    Метод сжатия : С потерями
    Бит/(Пиксели*Кадры) : 0.149
    Размер потока : 640 Мбайт (86%)
    Библиотека кодирования : XviD 73
    Аудио
    Идентификатор : 1
    Формат : AC-3
    Формат/Информация : Audio Coding 3
    Расширение режима : CM (complete main)
    Параметр Endianness формата : Big
    Идентификатор кодека : 2000
    Продолжительность : 1 ч. 11 м.
    Вид битрейта : Постоянный
    Битрейт : 192 Кбит/сек
    Каналы : 2 канала
    Расположение каналов : Front: L R
    Частота : 48,0 КГц
    Битовая глубина : 16 бит
    Метод сжатия : С потерями
    Размер потока : 98,9 Мбайт (13%)
    Выравнивание : Разделение по промежуткам
    Продолжительность промежутка : 40 мс. (1,00 видеокадр)
    Время предзагрузки промежутка : 500 мс

    Скриншоты



    Залил: AVPStudio
    Размер скачиваемого торрента: 744.11 MB (780251136 Bytes)

    Клятва Тимура (1942) DVDRip от New-Team торрент скачать бесплатно
    загрузка...
    Рейтинг →
     (голосов: 1, оценка 5/5, голосовать можно 1 раз )

    Другие торренты по теме:

  • Клятва / The Vow (2012) BDRip-AVC | iPad
  • Клятва богини Кали / Kasam Kali Ki (1991) SATRip от Files-x | P
  • Клятва / The Vow (2012) BDRip-AVC от leonardo 59 Scarabey | Лицензия скачать через торрент бесплатно
  • Клятва / The Vow (2012) BDRip 720p от leonardo 59 Scarabey | Лицензия скачать через торрент бесплатно
  • Клятва молчания / Sworn to Silence / An Amish Murder (2013) WEB-DL 720p от CINEMANIA | Elrom скачать через торрент бесплатно
  • Клятва молчания / An Amish Murder (2013) WEB-DLRip от BitTracker скачать через торрент бесплатно
  • Клятва молчания / Sworn to Silence / An Amish Murder (2013) WEB-DLRip | Elrom скачать через торрент бесплатно
  • Клятва / Wu Ji / The Promise (2005) HDRip от Scarabey | P2


    • Комментарии (0):

      Информация

      Информация

        Посетители, находящиеся в группе Гости, не могут оставлять комментарии в данной новости.

        ↓ Меню



        ↓ Опрос

        А Вы добавили сайт в закладки?
        Да
        Не


        Top 10 за месяц (Фильмы)