.
Авторизация | Регистрация
Хочешь лучшие торренты? Добавь свой email!
Добавить
» » Король приключений / Mao xian wang (1996) BDRip 720p | A скачать торрент бесплатно




    Король приключений / Mao xian wang (1996) BDRip 720p | A скачать торрент бесплатно

    Опубликовал: Админ | Дата: 27-02-2015, 11:10 | Просмотров: 158

    Король приключений/Mao xian wang (Dr. Wai in The ure with No Words)
    Русское название:Король приключений
    Русское название в мировом прокате:Mao xian wang (Dr. Wai in The ure with No Words)
    Создали в:1996
    Категория жанра:Боевые искусства, приключения, комедия, фэнтези

    Главный режиссер:Сиу-Тунг Чинг

    Актеры
    Джет Ли, Розамунд Кван, Такеши Канеширо, Чарли Юнг, Билли Чоу, Конг Юк-Синг, Лау Кар-Йинг, Нгай Синг, Вонг Минг-Кин, Вонг Хой-Сам, Квок Кин-Юнг, Конг Фу-Кеунг, Лам Вэй-Минг, Лау Чи-Минг, Лиу Тье-Лян, Хо Винг-Чеунг, Хон Пинг, Цим Сиу-Линг, Че Ким-Фай


    Сюжет фильма

    Доктор Вэй или, как его называют окружающие, Король приключений (Джет Ли) всегда готов помочь в борьбе со злом и несправедливостью – нет ничего, что не было бы ему по плечу. По заданию китайских войск он и его помощник (Такеши Канеширо) направляются на поиски древней шкатулки, в которой сокрыта гигантская сила. Но за ней уже охотится масса других людей – не очень хороших. Но все это – всего лишь фантазия, сюжет новой книги, которую пишет известный писатель приключенческих книг Чоу Си-Кит (Джет Ли), переживающий развод с любимой Моникой (Розамунд Кван).



    Снималось в:Гонконг, China Film Co-Production Corporation, Eastern Productions
    Время просмотра:01:30:33
    Перевод текста:Авторский

    Качество фильма:BDRip 720p
    Информация о видео:MPEG-4 AVC, 8000 Кбит/с, 1274x534
    Информация о звуке:Русский, китайский (AC3, 6 ch, 640 Кбит/с)
    Субтитры:Английские
    Скриншоты




    MediaInfo
    Общее
    Уникальный идентификатор : 245327079229286076677229889718655051500 (0xB89046DCBC96026A894F12A812E6E6EC)
    Полное имя : E:Dr.Wai.in.the.ure.With.No.Words.1996.BDRip.720p.mkv
    Формат : Matroska
    Версия формата : Version 2
    Размер файла : 6,27 Гбайт
    Продолжительность : 1 ч. 30 м.
    Общий поток : 9920 Кбит/сек
    Дата кодирования : UTC 2015-02-26 10:17:34
    Программа кодирования : mkvmerge v7.6.0 (;Garden of Dreams;) 64bit built on Feb 8 2015 13:04:34
    Библиотека кодирования : libebml v1.3.1 + libmatroska v1.4.2
    Видео
    Идентификатор : 1
    Формат : AVC
    Формат/Информация : Advanced Video Codec
    Профиль формата : High@L4.1
    Параметр CABAC формата : Да
    Параметр ReFrames формата : 12 кадров
    Идентификатор кодека : V_MPEG4/ISO/AVC
    Продолжительность : 1 ч. 30 м.
    Битрейт : 8000 Кбит/сек
    Ширина : 1274 пикселя
    Высота : 534 пикселя
    Соотношение сторон : 2,40:1
    Режим частоты кадров : Постоянный
    Частота кадров : 24,000 кадра/сек
    Цветовое пространство : YUV
    Субдискретизация насыщенности : 4:2:0
    Битовая глубина : 8 бит
    Тип развёртки : Прогрессивная
    Бит/(Пиксели*Кадры) : 0.490
    Размер потока : 4,93 Гбайт (79%)
    Библиотека кодирования : x264 core 140 r2377+40 929f149 tMod 8-bit@4:2:0 X86_64
    Настройки программы : cabac=1/ref=12/deblock=1:-3:-3/analyse=0x3:0x133/me=umh/subme=11/psy=1/fade_compensate=0.00/psy_rd=1.00:0.00/mixed_ref=1/me_range=48/chroma_me=1/trellis=2/8x8dct=1/cqm=0/deadzone=21,11/fast_pskip=0/chroma_qp_offset=-2/threads=12/lookahead_threads=1/sliced_threads=0/nr=0/decimate=0/interlaced=0/bluray_compat=0/constrained_intra=0/fgo=0/bframes=8/b_pyramid=2/b_adapt=2/b_bias=0/direct=3/weightb=1/open_gop=0/weightp=2/keyint=360/keyint_min=2/scenecut=40/intra_refresh=0/rc_lookahead=240/rc=2pass/mbtree=1/bitrate=8000/ratetol=1.0/qcomp=0.70/qpmin=0:0:0/qpmax=69:69:69/qpstep=4/cplxblur=20.0/qblur=0.5/vbv_maxrate=50000/vbv_bufsize=30000/nal_hrd=none/filler=0/ip_ratio=1.10/aq=1:0.80/aq-sensitivity=10.00/aq-factor=1.00:1.00:1.00/aq2=0/aq3=0
    Язык : Chinese
    Default : Да
    Forced : Нет
    Аудио #1
    Идентификатор : 2
    Формат : AC-3
    Формат/Информация : Audio Coding 3
    Расширение режима : CM (complete main)
    Параметр Endianness формата : Big
    Идентификатор кодека : A_AC3
    Продолжительность : 1 ч. 30 м.
    Вид битрейта : Постоянный
    Битрейт : 640 Кбит/сек
    Каналы : 6 каналов
    Расположение каналов : Front: L C R, Side: L R, LFE
    Частота : 48,0 КГц
    Битовая глубина : 16 бит
    Метод сжатия : С потерями
    Размер потока : 415 Мбайт (6%)
    Заголовок : AVO (Kashkin)
    Язык : Russian
    Default : Да
    Forced : Нет
    Аудио #2
    Идентификатор : 3
    Формат : AC-3
    Формат/Информация : Audio Coding 3
    Расширение режима : CM (complete main)
    Параметр Endianness формата : Big
    Идентификатор кодека : A_AC3
    Продолжительность : 1 ч. 30 м.
    Вид битрейта : Постоянный
    Битрейт : 640 Кбит/сек
    Каналы : 6 каналов
    Расположение каналов : Front: L C R, Side: L R, LFE
    Частота : 48,0 КГц
    Битовая глубина : 16 бит
    Метод сжатия : С потерями
    Размер потока : 415 Мбайт (6%)
    Заголовок : Mandarin(??)
    Язык : Chinese
    Default : Нет
    Forced : Нет
    Аудио #3
    Идентификатор : 4
    Формат : AC-3
    Формат/Информация : Audio Coding 3
    Расширение режима : CM (complete main)
    Параметр Endianness формата : Big
    Идентификатор кодека : A_AC3
    Продолжительность : 1 ч. 30 м.
    Вид битрейта : Постоянный
    Битрейт : 640 Кбит/сек
    Каналы : 6 каналов
    Расположение каналов : Front: L C R, Side: L R, LFE
    Частота : 48,0 КГц
    Битовая глубина : 16 бит
    Метод сжатия : С потерями
    Размер потока : 415 Мбайт (6%)
    Заголовок : Cantonese(??)
    Язык : Chinese
    Default : Нет
    Forced : Нет
    Текст
    Идентификатор : 5
    Формат : UTF-8
    Идентификатор кодека : S_TEXT/UTF8
    Идентификатор кодека/Информация : UTF-8 Plain Text
    Язык : English
    Default : Нет
    Forced : Нет
    Меню
    00:00:00.000 : en:00:00:00.000
    00:04:49.292 : en:00:04:49.292
    00:09:35.583 : en:00:09:35.583
    00:14:39.208 : en:00:14:39.208
    00:18:18.000 : en:00:18:18.000
    00:22:55.833 : en:00:22:55.833
    00:27:21.375 : en:00:27:21.375
    00:30:34.000 : en:00:30:34.000
    00:35:29.625 : en:00:35:29.625
    00:39:50.167 : en:00:39:50.167
    00:44:01.583 : en:00:44:01.583
    00:47:17.167 : en:00:47:17.167
    00:51:15.708 : en:00:51:15.708
    00:55:52.208 : en:00:55:52.208
    01:01:03.792 : en:01:01:03.792
    01:05:38.250 : en:01:05:38.250
    01:10:22.625 : en:01:10:22.625
    01:16:00.667 : en:01:16:00.667
    01:20:20.500 : en:01:20:20.500
    01:24:46.375 : en:01:24:46.375

    Размер скачиваемого торрента: 6.27 GB (6736854438 Bytes)

    Король приключений/Mao xian wang (1996) BDRip 720p | A торрент скачать бесплатно
    загрузка...
    Рейтинг →
     (голосов: 1, оценка 3/5, голосовать можно 1 раз )

    Другие торренты по теме:

  • Король Звездный Король / King Star King (2013) WEB-DL 1080p
  • Король чёртова острова / Король острова Дьявола / King of Devils Island (2010) HDRip | L1 скачать через торрент бесплатно
  • Король острова Бастой / Король острова Дьявола / Kongen av Basty / King of Devils Island (2010) HDRip от Scarabey скачать через торрент бесплатно
  • Последний король Шотландии / The Last King of Scotland (2006) HDRip от Scarabey | D
  • Я король / I Am a King (2012) DVDRip от mi24
  • OST - Король говорит! / The Kings Speech Soundtrack (2010) MP3
  • Король уходит / The King Steps Out (1936) DVDRip от egoleshik
  • Король Лев / The Lion King (1994) BDRip-AVC | iPad


    • Комментарии (0):

      Информация

      Информация

        Посетители, находящиеся в группе Гости, не могут оставлять комментарии в данной новости.

        ↓ Меню



        ↓ Опрос

        А Вы добавили сайт в закладки?
        Да
        Не


        Top 10 за месяц (Фильмы)