.
Авторизация | Регистрация
Хочешь лучшие торренты? Добавь свой email!
Добавить
» » Прирождённый гонщик-2 / Born to Race: Fast Track (2014) HDRip | ИндивИдуалист скачать через торрент бесплатно




    Прирождённый гонщик-2 / Born to Race: Fast Track (2014) HDRip | ИндивИдуалист скачать через торрент бесплатно

    Опубликовал: Админ | Дата: 27-02-2015, 11:10 | Просмотров: 140

    Прирождённый гонщик-2
    Born to Race: Fast Track

    Снималось в: США
    Категория жанра: боевик
    Создали в: 2015
    Время просмотра: 01:34:07
    Перевод текста: Любительский одноголосый закадровый -ИндивИдуалист
    Главный режиссёр: Алекс Ранаривело/Alex Ranarivelo


    Актеры
    Бретт Даверн, Бо Мирчофф, Диого Моргадо, Тиффани Дюпон, Билл Сейдж, Шэрон Лоуренс, Николь Бадаан, Стив Бонд, Корбин Бернсен, Грант Шоу.
    Описание: Двадцатилетний уличный гонщик - Дэнни Крюгер не останавливается на достигнутом. Гонщик выиграл стипендию от школы вождения Fast Lane и двигается дальше. Теперь Дэнни старается доказать, что он достоен принять участие в более крупном соревновании - Lucas Oil Cup. Но не всё так просто... Непредвиденное обстоятельство и Дэнни вынужден сменить напарника. В прошлом соперник - ныне напарник, как Вам такая партия? Личные разногласия могут сыграть решающую роль, а ведь на кон поставлена победа!

    Перевод фильма:Дмитрий Чекан;
    Редактура, озвучивание, аудиомонтаж, русификация постера:ИндивИдуалист;

    Отрывок|1,5ГБ|Мои раздачи

    Качество фильма видео: HDRip
    Тип видео видео: AVI
    Информация о видео: 688x288, 25 fps, XviD build 73 ~976 kbps avg, 0.19 bit/pixel
    Информация о звуке: 48 kHz, МР3, 2/0 (L,R) ch, ~128.00 kbps avgИндивИдуалист

    Скриншоты






    МИ

    General
    Complete name : D:Прирождённый гонщик-2 (2014) ИндивИдуалист.avi
    Format : AVI
    Format/Info : Audio Video Interleave
    File size : 750 MiB
    Duration : 1h 34mn
    Overall bit rate : 1 114 Kbps
    Writing application : VirtualDubModRus 1.5.10.2 (build 2542/release)
    Writing library : VirtualDubMod build 2542/release
    Video
    ID : 0
    Format : MPEG-4 Visual
    Format profile : Advanced Simple@L5
    Format settings, BVOP : 2
    Format settings, QPel : No
    Format settings, GMC : No warppoints
    Format settings, Matrix : Custom
    Codec ID : XVID
    Codec ID/Hint : XviD
    Duration : 1h 34mn
    Bit rate : 976 Kbps
    Width : 688 pixels
    Height : 288 pixels
    Display aspect ratio : 2.40:1
    Frame rate : 25.000 fps
    Color space : YUV
    Chroma subsampling : 4:2:0
    Bit depth : 8 bits
    Scan type : Progressive
    Compression mode : Lossy
    Bits/(Pixel*Frame) : 0.197
    Stream size : 657 MiB (88%)
    Writing library : XviD 73
    Audio
    ID : 1
    Format : MPEG Audio
    Format version : Version 1
    Format profile : Layer 3
    Mode : Joint stereo
    Mode extension : MS Stereo
    Codec ID : 55
    Codec ID/Hint : MP3
    Duration : 1h 34mn
    Bit rate mode : Constant
    Bit rate : 128 Kbps
    Channel(s) : 2 channels
    Sampling rate : 48.0 KHz
    Compression mode : Lossy
    Stream size : 86.2 MiB (11%)
    Alignment : Aligned on interleaves
    Interleave, duration : 40 ms (1.00 video frame)
    Interleave, preload duration : 504 ms

    Приятного просмотра! = )
    Размер скачиваемого торрента: 749.70 MB (786112512 Bytes)

    Прирождённый гонщик-2/Born to Race: Fast Track (2014) HDRip | ИндивИдуалист скачать через торрент бесплатно
    загрузка...
    Рейтинг →
     (голосов: 1, оценка 5/5, голосовать можно 1 раз )

    Другие торренты по теме:



      Комментарии (0):

      Информация

      Информация

        Посетители, находящиеся в группе Гости, не могут оставлять комментарии в данной новости.

        ↓ Меню



        ↓ Опрос

        А Вы добавили сайт в закладки?
        Да
        Не


        Top 10 за месяц (Фильмы)