.
Авторизация | Регистрация
Хочешь лучшие торренты? Добавь свой email!
Добавить
» » Супербратья Марио / Super Mario Bros. (1993) HDRip от Leon-masl | P скачать торрент бесплатно




    Супербратья Марио / Super Mario Bros. (1993) HDRip от Leon-masl | P скачать торрент бесплатно

    Опубликовал: Админ | Дата: 27-02-2015, 11:10 | Просмотров: 161


    Детально о кино
    Русское название:Супербратья Марио
    Русское название в мировом прокате:Super Mario Bros.
    Создали в:1993
    Категория жанра:Фантастика, боевик, триллер, фэнтези, комедия, приключения, семейный
    Главный режиссер:Аннабел Джэнкел, Рокки Мортон, Роланд Жоффе, Дин Семлер

    Актеры
    Боб Хоскинс,Джон Легуизамо,Дэннис Хоппер, Саманта Мэтис, Фишер Стивенс, Ричард Эдсон, Фиона Шоу, Дэна Камински, Джанни Руссо

    Сюжет фильма

    Два брата-водопроводчика из Бруклина, Марио Марио и Луиджи Марио, случайно обнаружили совершенно новое измерение. Это подземный мир, в котором правит жестокий тиран Купа, город, населенный людьми-ящерицами, прямыми потомками динозавров.Они жаждут освободиться из подземного плена и под предводительством Купы захватить всю Землю. Ключ к победе хранится в осколке хрустального метеорита, который как драгоценный амулет носит на шее прекрасная юная принцесса Дэйзи. Спасая принцессу, супербратья Марио должны заодно спасти и человеческую цивилизацию…

    Снималось в:США, Великобритания
    Киностудия:Allied Filmmakers, Cinergi Pictures Entertainment, Hollywood Pictures
    Время просмотра:01:44:42
    Перевод текста:Профессиональный многоголосый (R5)
    Файл
    Кодек для видео:XviD
    Качество фильма:HDRip
    Информация о видео:704x384, 24,000 fps, 1546 kbps
    Информация о звуке:AC3, 6 ch, 448 kbps, 48.0 khz
    MI
    Общее
    Полное имя : Superbratya.Mario.1993.HDRip.avi
    Формат : AVI
    Формат/Информация : Audio Video Interleave
    Размер файла : 1,46 Гбайт
    Продолжительность : 1 ч. 44 м.
    Общий поток : 2003 Кбит/сек
    Программа кодирования : VirtualDubMod 1.5.10.3 | www.virtualdub-fr.org || (build 2550/release)
    Библиотека кодирования : VirtualDubMod build 2550/release
    Видео
    Идентификатор : 0
    Формат : MPEG-4 Visual
    Профиль формата : Advanced Simple@L5
    Параметр BVOP формата : 1
    Параметр QPel формата : Нет
    Параметр GMC формата : Без точки перехода
    Параметр матрицы формата : Выборочная
    Идентификатор кодека : XVID
    Идентификатор кодека/Подсказка : XviD
    Продолжительность : 1 ч. 44 м.
    Битрейт : 1546 Кбит/сек
    Ширина : 704 пикс.
    Высота : 384 пикс.
    Соотношение сторон : 16:9
    Частота кадров : 24,000 кадр/сек
    Цветовое пространство : YUV
    Подвыборка цветности : 4:2:0
    Битовая глубина : 8 бит
    Тип развёртки : Прогрессивная
    Метод сжатия : С потерями
    Бит/(Пиксели*Кадры) : 0.238
    Размер потока : 1,13 Гбайт (77%)
    Библиотека кодирования : XviD 73
    Аудио
    Идентификатор : 1
    Формат : AC-3
    Формат/Информация : Audio Coding 3
    Расширение режима : CM (complete main)
    Идентификатор кодека : 2000
    Продолжительность : 1 ч. 44 м.
    Вид битрейта : Постоянный
    Битрейт : 448 Кбит/сек
    Канал(ы) : 6 канала(ов)
    Расположение каналов : Front: L C R, Side: L R, LFE
    Частота : 48,0 КГц
    Битовая глубина : 16 бит
    Метод сжатия : С потерями
    Размер потока : 335 Мбайт (22%)
    Выравнивание : Разделение по промежуткам
    Продолжительность промежутка : 42 мс. (1,00 видеокадр)
    Время предзагрузки промежутка : 500 ms
    Скриншоты

    Релиз подготовил:Leon-masl
    Залил: leon-masl
    Размер скачиваемого торрента: 1.46 GB (1572612096 Bytes)

    Супербратья Марио/Super Mario Bros. (1993) HDRip от Leon-masl | P торрент скачать бесплатно
    загрузка...
    Рейтинг →
     (голосов: 1, оценка 3/5, голосовать можно 1 раз )

    Другие торренты по теме:

  • Супербратья Марио / Super Mario Bros (1993) DVDRip | P, А


    • Комментарии (0):

      Информация

      Информация

        Посетители, находящиеся в группе Гости, не могут оставлять комментарии в данной новости.

        ↓ Меню



        ↓ Опрос

        А Вы добавили сайт в закладки?
        Да
        Не


        Top 10 за месяц (Фильмы)