.
Авторизация | Регистрация
Хочешь лучшие торренты? Добавь свой email!
Добавить
» » Вызов бездне 3D / Deepsea Challenge 3D (2014) BDRip 1080p | 3D-Video | HSBS | P скачать торрент бесплатно




    Вызов бездне 3D / Deepsea Challenge 3D (2014) BDRip 1080p | 3D-Video | HSBS | P скачать торрент бесплатно

    Опубликовал: Админ | Дата: 27-02-2015, 11:10 | Просмотров: 143


    Русское название в мировом прокате:Deepsea Challenge
    Русское название:Вызов бездне
    Категория жанра:Документальный
    Главный режиссёр:Джон Бруно/John Bruno, Рэй Кен/Ray Quint, Эндрю Уайт/Andrew Wight
    Год:2014
    В ролях:Джеймс Кэмерон/James Francis Cameron(играет самого себя), Френк Лолито (Giuseppe Buono), Лачлан Вудс (Jacques Piccard), Пол Генри (Don Walsh)

    ...На Земле есть несколько мест- которых не коснулась история развития человечества. В полной темноте и безмолвии они хранят величайшие тайны Земли. Недоступные, как далекие планеты, они полны научных открытий. Одно из таких мест — Марианская впадина.
    Джеймс Кэмерон — самый известный и успешный режиссер в мире, еще и страстный исследователь океанов, ведомый мечтой всей его жизни, быть первым человеком, ныряющим в одиночку на дно неприступной и самой глубокой из всех известных на Земле Марианской впадины.
    Вызов бездне — захватывающая история, разворачивающаяся перед нами в 3D, об экспедиции исторического масштаба, которую можно сравнить разве что с первыми человеческими шагами по луне. Вызов бездне загипнотизирует зрителя любого возраста красотой новых форм жизни, трепетом от настоящих открытий. А самое главное, что все это здесь, на их родной планете...
    Снималось в:США
    Киностудия:Beyond Productions, Disruptive LA, National Geographic Entertainment
    Время просмотра:01:31:04
    Перевод текста:Профессиональный (Многоголосый закадровый)
    Контейнер:MKV
    Информация о видео кодек:MPEG-4 (AVC)
    Качество фильма:BDRip
    Информация о видео:1920x1080 (16:9), 9663 kbps, 23,976 fps, 0,194 bpp
    Тип видео 3D:Half SideBySide/Горизонтальная анаморфная стереопара
    Порядок ракурсов:Левый ракурс первый
    Информация о звуке кодек:AC3
    Информация о звуке 1:Русский/2.0/48 kHz/192 kbps/16 bit
    Информация о звуке 2:Английский/5.1/48 kHz/640 kbps/16 bit
    Субтитры:Английские (English)

    Mediainfo:
    General
    Unique ID : 206698264042871959879621684543049593492 (0x9B80A33AE3364849B127CE17DF8E7294)
    Название : F:Vizov.Bezdne.2014.P.3D.BDRip.1080p.mkv
    Формат : Matroska
    Формат version : Version 4/Version 2
    Размер файла : 6.66 GiB
    Длительность : 1h 31mn
    Общий Битрейт : 10.5 Mbps
    Encoded date : UTC 2015-02-19 11:34:03
    Создано приложением : mkvmerge v7.5.0 (;Glass Culture;) 64bit built on Jan 4 2015 16:48:44
    Writing library : libebml v1.3.1 + libmatroska v1.4.2
    Длительность : 01:31:04.576000000
    NUMBER_OF_FRAMES : 170768
    NUMBER_OF_BYTES : 131149824
    _STATISTICS_WRITING_APP : mkvmerge v7.5.0 (;Glass Culture;) 64bit built on Jan 4 2015 16:48:44
    _STATISTICS_WRITING_DATE_UTC : 2015-02-19 11:34:03
    _STATISTICS_TAGS : BPS Длительность NUMBER_OF_FRAMES NUMBER_OF_BYTES
    Video
    ID : 1
    Формат : AVC
    Формат/Info : Advanced Video Кодек
    Формат profile : High@L4.1
    Формат настройки, CABAC : Yes
    Формат настройки, ReFrames : 4 frames
    Кодек ID : V_MPEG4/ISO/AVC
    Длительность : 1h 31mn
    Битрейт : 9 663 Kbps
    Width : 1 920 пикселей
    Высота : 1 080 пикселей
    Соотношение кадра : 16:9
    Частота кадров : 23.976 fps
    Цветопередача : YUV
    Chroma subsampling : 4:2:0
    Разрядность : 8 bits
    Тип сканирования : Progressive
    Bits/(Pixel*Frame) : 0.194
    Размер потока : 6.00 GiB (90%)
    Writing library : x264 core 142 r2479 dd79a61
    Encoding настройки : cabac=1/ref=4/deblock=1:0:0/analyse=0x3:0x133/me=umh/subme=7/psy=1/psy_rd=1.00:0.00/mixed_ref=1/me_range=16/chroma_me=1/trellis=1/8x8dct=1/cqm=0/deadzone=21,11/fast_pskip=0/chroma_qp_offset=-2/threads=18/lookahead_threads=3/sliced_threads=0/nr=0/decimate=1/interlaced=0/bluray_compat=0/constrained_intra=0/bframes=3/b_pyramid=2/b_adapt=1/b_bias=0/direct=1/weightb=1/open_gop=0/weightp=2/keyint=250/keyint_min=23/scenecut=40/intra_refresh=0/rc_lookahead=40/rc=2pass/mbtree=1/bitrate=9663/ratetol=1.0/qcomp=0.60/qpmin=0/qpmax=69/qpstep=4/cplxblur=20.0/qblur=0.5/ip_ratio=1.40/aq=1:1.00
    Язык : English
    Default : Yes
    Forced : No
    Длительность : 01:31:04.459000000
    NUMBER_OF_FRAMES : 131016
    NUMBER_OF_BYTES : 6585718090
    _STATISTICS_WRITING_APP : mkvmerge v7.5.0 (;Glass Culture;) 64bit built on Jan 4 2015 16:48:44
    _STATISTICS_WRITING_DATE_UTC : 2015-02-19 11:34:03
    _STATISTICS_TAGS : BPS Длительность NUMBER_OF_FRAMES NUMBER_OF_BYTES
    Audio #1
    ID : 2
    Формат : AC-3
    Формат/Info : Audio Coding 3
    Расширение режима : CM (complete main)
    Кодек ID : A_AC3
    Длительность : 1h 31mn
    Битрейт mode : Constant
    Битрейт : 192 Kbps
    Каналы(s) : 2 канала
    Каналы positions : Front: L R
    Частота : 48.0 KHz
    Разрядность : 16 bits
    Режим сжатия : Lossy
    Размер потока : 125 MiB (2%)
    Title : RUS
    Язык : Russian
    Default : No
    Forced : No
    Audio #2
    ID : 3
    Формат : AC-3
    Формат/Info : Audio Coding 3
    Расширение режима : CM (complete main)
    Кодек ID : A_AC3
    Длительность : 1h 31mn
    Битрейт mode : Constant
    Битрейт : 640 Kbps
    Каналы(s) : 6 каналов
    Каналы positions : Front: L C R, Side: L R, LFE
    Частота : 48.0 KHz
    Разрядность : 16 bits
    Режим сжатия : Lossy
    Размер потока : 417 MiB (6%)
    Язык : English
    Default : Yes
    Forced : No
    Text
    ID : 4
    Формат : UTF-8
    Кодек ID : S_TEXT/UTF8
    Кодек ID/Info : UTF-8 Plain Text
    Title : English
    Язык : English
    Default : No
    Forced : No
    Menu
    00:00:00.000 : en:00:00:00.000
    00:07:06.968 : en:00:07:06.968
    00:14:26.324 : en:00:14:26.324
    00:20:56.589 : en:00:20:56.589
    00:28:06.977 : en:00:28:06.977
    00:35:22.329 : en:00:35:22.329
    00:42:03.438 : en:00:42:03.438
    00:49:38.976 : en:00:49:38.976
    00:56:56.997 : en:00:56:56.997
    01:04:44.422 : en:01:04:44.422
    01:13:38.205 : en:01:13:38.205
    01:24:04.414 : en:01:24:04.414

    Залил: Spirit Summer
    Размер скачиваемого торрента: 6.66 GB (7155635449 Bytes)

    Вызов бездне 3D/Deepsea Challenge 3D (2014) BDRip 1080p | 3D-Video | HSBS | P торрент скачать бесплатно
    загрузка...
    Рейтинг →
     (голосов: 1, оценка 5/5, голосовать можно 1 раз )

    Другие торренты по теме:

  • Вызов бездне (2014) HDRip лицензия скачать через торрент бесплатно
  • Вызов бездне 3D / Deepsea Challenge 3D (2014) BDRip 720p


    • Комментарии (0):

      Информация

      Информация

        Посетители, находящиеся в группе Гости, не могут оставлять комментарии в данной новости.

        ↓ Меню



        ↓ Опрос

        А Вы добавили сайт в закладки?
        Да
        Не


        Top 10 за месяц (Фильмы)