.
Авторизация | Регистрация
Хочешь лучшие торренты? Добавь свой email!
Добавить
» » Александр и ужасный, кошмарный, нехороший, очень плохой день / Alexander and the Terrible, Horrible, No Good, Very Bad Day (2014) BDRip 1080p от MediaClub | Лицензия скачать через торрент бесплатно




    Александр и ужасный, кошмарный, нехороший, очень плохой день / Alexander and the Terrible, Horrible, No Good, Very Bad Day (2014) BDRip 1080p от MediaClub | Лицензия скачать через торрент бесплатно

    Опубликовал: Админ | Дата: 27-02-2015, 11:10 | Просмотров: 139


    Детально о кино
    Русское название: Александр и ужасный, кошмарный, нехороший, очень плохой день
    Русское название в мировом прокате: Alexander and the Terrible, Horrible, No Good, Very Bad Day
    Создали в: 2014
    Категория жанра: комедия, семейный
    Главный режиссер: Мигель Артета

    Актеры
    Стив Карелл, Дженнифер Гарнер, Эд Оксенбульд, Дилан Миннетт, Кэррис Дорси, Элиз Варгас, Зоя Варгас, Сидни Фуллмер, Белла Торн, Меган Маллалли

    Сюжет фильма

    Утро для Александра началось ужасно: жвачка, которая еще вечером была у него во рту, теперь запуталась в волосах, вставая с кровати, он поскользнулся на скейтборде и по ошибке бросил свой свитер в раковину, когда там была вода. Уже тогда можно было сказать, что это будет ужасный, страшный, нехороший, очень плохой день. Все валилось из рук и шло совсем не так, как хотелось бы. Что же делать в такой день? Например, можно подумать о путешествии в Австралию. Также можно обнаружить, что день такой плохой не только у тебя…

    Снималось в:США
    Киностудия:Walt Disney Pictures
    Время просмотра:01:21:05
    Перевод текста:Профессиональный (полное дублирование) Blu-ray EUR
    Релиз:
    Видеоряд от VietHD
    Сборка рипа - Womanizer0
    Файл
    Тип видео: Matroska
    Информация о видео: 1920x804 at 23.976 fps, High@L4.1, ~11200 kbps avg
    Aудио#1: Russian: 48 kHz, AC3, 3/2 (L,C,R,l,r) + LFE ch, ~640.00 kbps avg |Дубляж, Blu-ray EUR|
    Информация о звуке#2: English: 48 kHz, DTS, 3/2 (L,C,R,l,r) + LFE ch, ~1536.00 kbps avg
    Субтитры: Russian (Forced, Full), English
    MI
    General
    Unique ID : 188439311151697015701196735450084364252 (0x8DC41759308B50FEBB10F6C4D2354FDC)
    Complete name : Alexander.and.the.Terrible.Horrible.No.Good.Very.Bad.Day.2014.1080p.BluRay.x264.Rus.Eng.Subs-VietHD.mkv
    Format : Matroska
    Format version : Version 4/Version 2
    File size : 7.69 GiB
    Duration : 1h 21mn
    Overall bit rate : 13.6 Mbps
    Movie name : released by aldershot
    Encoded date : UTC 2015-02-09 07:11:33
    Writing application : mkvmerge v6.9.1 (;Blue Panther;) 64bit built on Apr 18 2014 18:23:38
    Writing library : libebml v1.3.0 + libmatroska v1.4.1
    Video
    ID : 1
    Format : AVC
    Format/Info : Advanced Video Codec
    Format profile : High@L4.1
    Format settings, CABAC : Yes
    Format settings, ReFrames : 5 frames
    Codec ID : V_MPEG4/ISO/AVC
    Duration : 1h 21mn
    Bit rate : 11.1 Mbps
    Width : 1 920 pixels
    Height : 804 pixels
    Display aspect ratio : 2.40:1
    Frame rate mode : Constant
    Frame rate : 23.976 fps
    Color space : YUV
    Chroma subsampling : 4:2:0
    Bit depth : 8 bits
    Scan type : Progressive
    Bits/(Pixel*Frame) : 0.301
    Stream size : 6.32 GiB (82%)
    Writing library : x264 core 144 r2525kMod 40bb568
    Encoding settings : cabac=1/ref=5/deblock=1:-3:-3/analyse=0x3:0x133/me=umh/subme=11/psy=1/fade_compensate=0.00/psy_rd=1.00:0.00/mixed_ref=1/me_range=32/chroma_me=1/trellis=2/8x8dct=1/cqm=0/deadzone=21,11/fast_pskip=0/chroma_qp_offset=-2/threads=12/lookahead_threads=2/sliced_threads=0/nr=0/decimate=0/interlaced=0/bluray_compat=0/constrained_intra=0/fgo=0/bframes=8/b_pyramid=2/b_adapt=2/b_bias=0/direct=3/weightb=1/open_gop=0/weightp=2/keyint=250/keyint_min=23/scenecut=40/intra_refresh=0/rc=crf/mbtree=0/crf=16.7000/qcomp=0.70/qpmin=0/qpmax=69/qpstep=4/ip_ratio=1.30/pb_ratio=1.20/aq=1:0.80
    Language : English
    Default : No
    Forced : No
    Audio #1
    ID : 2
    Format : AC-3
    Format/Info : Audio Coding 3
    Mode extension : CM (complete main)
    Format settings, Endianness : Big
    Codec ID : A_AC3
    Duration : 1h 21mn
    Bit rate mode : Constant
    Bit rate : 640 Kbps
    Channel(s) : 6 channels
    Channel positions : Front: L C R, Side: L R, LFE
    Sampling rate : 48.0 KHz
    Bit depth : 16 bits
    Compression mode : Lossy
    Stream size : 372 MiB (5%)
    Title : Дубляж, Blu-Ray EUR
    Language : Russian
    Default : Yes
    Forced : No
    Audio #2
    ID : 3
    Format : DTS
    Format/Info : Digital Theater Systems
    Mode : 16
    Format settings, Endianness : Big
    Codec ID : A_DTS
    Duration : 1h 21mn
    Bit rate mode : Constant
    Bit rate : 1 509 Kbps
    Channel(s) : 6 channels
    Channel positions : Front: L C R, Side: L R, LFE
    Sampling rate : 48.0 KHz
    Bit depth : 24 bits
    Compression mode : Lossy
    Stream size : 877 MiB (11%)
    Language : English
    Default : No
    Forced : No
    Text #1
    ID : 4
    Format : UTF-8
    Codec ID : S_TEXT/UTF8
    Codec ID/Info : UTF-8 Plain Text
    Title : Forced, Blu-Ray EUR
    Language : Russian
    Default : Yes
    Forced : No
    Text #2
    ID : 5
    Format : UTF-8
    Codec ID : S_TEXT/UTF8
    Codec ID/Info : UTF-8 Plain Text
    Title : Full, Blu-Ray EUR
    Language : Russian
    Default : No
    Forced : No
    Text #3
    ID : 6
    Format : UTF-8
    Codec ID : S_TEXT/UTF8
    Codec ID/Info : UTF-8 Plain Text
    Title : Full
    Language : English
    Default : No
    Forced : No
    Menu
    00:00:00.000 : en:Chapter 01
    00:05:51.518 : en:Chapter 02
    00:15:15.164 : en:Chapter 03
    00:21:50.726 : en:Chapter 04
    00:25:10.801 : en:Chapter 05
    00:33:01.855 : en:Chapter 06
    00:40:16.289 : en:Chapter 07
    00:48:23.859 : en:Chapter 08
    00:55:11.016 : en:Chapter 09
    01:05:44.190 : en:Chapter 10
    01:10:12.750 : en:Chapter 11
    01:14:43.229 : en:Chapter 12
    Скриншоты

    Размер скачиваемого торрента: 7.69 GB (8260516798 Bytes)

    Александр и ужасный, кошмарный, нехороший, очень плохой день/Alexander and the Terrible, Horrible, No Good, Very Bad Day (2014) BDRip 1080p от MediaClub | Лицензия скачать через торрент бесплатно
    загрузка...
    Рейтинг →
     (голосов: 1, оценка 3/5, голосовать можно 1 раз )

    Другие торренты по теме:

  • Александр и Владимир Грызловы - Я вернулся домой скачать через торрент бесплатно
  • Александр и ужасный, кошмарный, нехороший, очень плохой день / Alexander and the Terrible, Horrible, No Good, Very Bad Day (2014) HDRip от Scarabey | iTunes скачать через торрент бесплатно
  • Александр и ужасный, кошмарный, нехороший, очень плохой день / Alexander and the Terrible (2014) BDRip 1080p от Leonardo and Scarabey | Лицензия
  • Александр и ужасный, кошмарный, нехороший, очень плохой день / Alexander and the Terrible, Horrible, No Good, Very Bad Day (2014) BDRip от HQCLUB | Лицензия скачать через торрент бесплатно
  • Александр и ужасный кошмарный нехороший очень плохой день / Alexander and the Terrible Horrible No Good Very Bad Day (2014) HDRip-AVC | D скачать через торрент бесплатно
  • Александр Василевский, И. С. Конев, К. К. Рокоссовский - Жуков и Сталин (2016) FB2
  • Александр Балу Балунов - Король и Шут. Между Купчино и Ржевкой (2016) PDF, DJVU
  • Александр Балу Балунов - Король и Шут. Между Купчино и Ржевкой… (2016) FB2


    • Комментарии (0):

      Информация

      Информация

        Посетители, находящиеся в группе Гости, не могут оставлять комментарии в данной новости.

        ↓ Меню



        ↓ Опрос

        А Вы добавили сайт в закладки?
        Да
        Не


        Top 10 за месяц (Фильмы)