.
Авторизация | Регистрация
Хочешь лучшие торренты? Добавь свой email!
Добавить
» » Еще один год (2014) WEB-DLRip от BitTracker | iTunes скачать торрент бесплатно




    Еще один год (2014) WEB-DLRip от BitTracker | iTunes скачать торрент бесплатно

    Опубликовал: Админ | Дата: 27-02-2015, 11:10 | Просмотров: 135


    Детально о кино
    Русское название:Еще один год
    Создали в:2014
    Категория жанра:мелодрама
    Главный режиссер:Оксана Бычкова

    Актеры
    Алексей Филимонов, Надежда Лумпова

    Сюжет фильма

    История возникновения страстной любви сквозь боль, страдания и слезы. Вряд ли в арсенале человеческих чувств и эмоций найдется что-то ярче и желаннее, чем любовь и страсть. Они редко ходят по отдельности, все больше вместе, сплетаются в один узел и путают без того подчас сложные отношения. Он — бомбила, подрабатывающий по ночам, она — начинающий веб-дизайнер в модном СМИ. Любви в этих отношения сполна, но они из разных социальных слоев, у них разные интересы. Эти различия, в комбинации с бешеной страстью, постепенно достигают своего апогея. И все это происходит в течение года. Они маются, расстаются, сходятся, любят, ненавидят, занимаются любовью и снова убегают друг от друга и от себя. Что творится в головах и сердцах этих людей не понимает никто, но самое интересное, а знают ли они сами?

    Снималось в:Россия/Gosfilmofond of Russia, Moscow, Multiland
    Время просмотра:01:47:33
    Перевод текста:Оригинал iTunes
    Файл
    Кодек для видео:XviD
    Качество фильма:WEB-DLRip (Исх. WEB-DL 1080p)
    Информация о видео:704x384 (1.83:1), 24 fps, XviD build 73 ~2259 kbps avg, 0.35 bit/pixel
    Информация о звуке:48 kHz, AC3 Dolby Digital, 3/2 (L,C,R,l,r) + LFE ch, ~448.00 kbps avg
    Субтитры:нет
    Семпл
    MediaInfo

    Общее
    Полное имя : S:ФильмыЕще один год. 2014. WEB-DLRip. 2.05 (AleksSin).avi
    Формат : AVI
    Формат/Информация : Audio Video Interleave
    Профиль формата : OpenDML
    Размер файла : 2,04 Гбайт
    Продолжительность : 1 ч. 47 м.
    Общий поток : 2720 Кбит/сек
    Программа кодирования : VirtualDubMod 1.5.10.3 | (build 2550/release)
    Библиотека кодирования : VirtualDubMod build 2550/release
    Видео
    Идентификатор : 0
    Формат : MPEG-4 Visual
    Профиль формата : Advanced Simple@L5
    Параметр BVOP формата : 1
    Параметр QPel формата : Нет
    Параметр GMC формата : Без точки перехода
    Параметр матрицы формата : Выборочная
    Идентификатор кодека : XVID
    Идентификатор кодека/Подсказка : XviD
    Продолжительность : 1 ч. 47 м.
    Битрейт : 2259 Кбит/сек
    Ширина : 704 пикс.
    Высота : 384 пикс.
    Соотношение сторон : 16:9
    Частота кадров : 24,000 кадр/сек
    Цветовое пространство : YUV
    Подвыборка цветности : 4:2:0
    Битовая глубина : 8 бит
    Тип развёртки : Прогрессивная
    Метод сжатия : С потерями
    Бит/(Пиксели*Кадры) : 0.348
    Размер потока : 1,70 Гбайт (83%)
    Библиотека кодирования : XviD 73
    Аудио
    Идентификатор : 1
    Формат : AC-3
    Формат/Информация : Audio Coding 3
    Расширение режима : CM (complete main)
    Идентификатор кодека : 2000
    Продолжительность : 1 ч. 47 м.
    Вид битрейта : Постоянный
    Битрейт : 448 Кбит/сек
    Каналы : 6 каналов
    Расположение каналов : Front: L C R, Side: L R, LFE
    Частота : 48,0 КГц
    Битовая глубина : 16 бит
    Метод сжатия : С потерями
    Размер потока : 345 Мбайт (16%)
    Выравнивание : Разделение по промежуткам
    Продолжительность промежутка : 42 мс. (1,00 видеокадр)
    Время предзагрузки промежутка : 500 ms

    Скриншоты



    Релиз подготовил:
    Залил: *AleksSin*
    Размер скачиваемого торрента: 2.04 GB (2193881088 Bytes)

    Еще один год (2014) WEB-DLRip от BitTracker | iTunes торрент скачать бесплатно
    загрузка...
    Рейтинг →
     (голосов: 1, оценка 3/5, голосовать можно 1 раз )

    Другие торренты по теме:

  • Еще один год / Another Year (2010) BDRip от Rulya74
  • 24 часа: Проживи еще один день / 24: Live Another Day (2014) WEB-DL 720p | Jaskier скачать через торрент бесплатно
  • 24 часа: Проживи еще один день / 24: Live Another Day (2014) WEB-DLRip | Jaskier скачать через торрент бесплатно
  • 24 часа: Проживи еще один день / 24: Live Another Day (2014) WEB-DLRip | Paradox скачать через торрент бесплатно
  • 24 часа: Проживи еще один день / 24: Live Another Day (2014) WEB-DL 720p | NewStudio NovaFilm
  • 24 часа: Проживи еще один день / 24: Live Another Day (2014) WEB-DLRip | NewStudio NovaFilm
  • 24 часа: Проживи еще один день / 24: Live Another Day (2014) WEB-DL 1080p | NewStudio NovaFilm скачать через торрент бесплатно
  • 24 часа: Проживи еще один день / 24: Live Another Day (2014) WEB-DLRip от Scarabey | NewStudio NovaFilm скачать через торрент бесплатно


    • Комментарии (0):

      Информация

      Информация

        Посетители, находящиеся в группе Гости, не могут оставлять комментарии в данной новости.

        ↓ Меню



        ↓ Опрос

        А Вы добавили сайт в закладки?
        Да
        Не


        Top 10 за месяц (Фильмы)