.
Авторизация | Регистрация
Хочешь лучшие торренты? Добавь свой email!
Добавить
» » Двойной просчет / Double Jeopardy (1999) DVD-9 скачать торрент бесплатно




    Двойной просчет / Double Jeopardy (1999) DVD-9 скачать торрент бесплатно

    Опубликовал: Админ | Дата: 27-02-2015, 11:10 | Просмотров: 179


    Детально о кино
    Русское название:Двойной просчет
    Русское название в мировом прокате:Double Jeopardy
    Создали в:1999
    Категория жанра:Триллер
    Главный режиссер:Брюс Бирсфорд

    Актеры
    Томми Ли Джонс, Эшли Джадд, Брюс Гринвуд, Аннабет Гиш, Рома Маффиа, Джей Бразо, Дейв Хэгер, Давиния МакФэдден, Анна Хэган, Спенсер Трит Кларк

    Сюжет фильма
    Молодой женщине пришлось отбывать срок за преступление, к которому она не имела никакого отношения. Более того, выяснилось, что подставил её собственный муж, который на самом деле был жив-здоров и прекрасно себя чувствовал. Однако, он забыл принять во внимание, на что способна Либби, когда её вероломно предают. Срок закончился, и она отправляется восстанавливать справедливость. А вслед за Либби устремляется офицер по надзору за выпущенными на свободу заключёнными.

    Снималось в:США, Германия, Канада
    Киностудия:Paramount Pictures
    Время просмотра:01:45:06
    Перевод текста:Профессиональный многоголосый, профессиональный двухголосый, авторский
    Файл
    Кодек для видео:MPEG-2
    Качество фильма:DVD-9
    Информация о видео:MPEG2, NTSC 16:9 (720x480) VBR, 23,976 кадр/с
    Информация о звуке:Русский/Английский 2.0(192Kbps)
    Перевод

    1. Профессиональный многоголосый (СТС)
    2. Профессиональный многоголосый (НТВ)
    3. Профессиональный двухголосый (ПРЕМЬЕР)
    4. Профессиональный двухголосый (НТВ+)
    5. Авторский (Живов)
    6. Авторский (Гаврилов)
    7. Английский
    Меню
    DVDInfo
    Title:
    Size: 6.84 Gb ( 7 169 488 KBytes ) - DVD-9
    Enabled regions: 1, 2, 3, 4, 5, 6, 7, 8
    VTS_01 :
    Play Length: 01:45:06
    Video: NTSC 16:9 (720x480) VBR, Auto PanScan
    Audio:
    Russian (Dolby AC3, 2 ch)
    Russian (Dolby AC3, 2 ch)
    Russian (Dolby AC3, 2 ch)
    Russian (Dolby AC3, 2 ch)
    Russian (Dolby AC3, 2 ch)
    Russian (Dolby AC3, 2 ch)
    English (Dolby AC3, 2 ch)
    Menu Video:
    NTSC 4:3 (704x480) VBR
    Menu English Language Unit :
    Root Menu
    MediaInfo
    Общее
    Полное имя : D:ААА2Двойной просчетVIDEO_TSVTS_01_1.VOB
    Формат : MPEG-PS
    Размер файла : 1000 Мбайт
    Продолжительность : 15 м.
    Режим общего битрейта : Переменный
    Общий поток : 9215 Кбит/сек
    Видео
    Идентификатор : 224 (0xE0)
    Формат : MPEG Video
    Версия формата : Version 2
    Профиль формата : Main@Main
    Параметр BVOP формата : Да
    Параметр матрицы формата : Выборочная
    Параметр GOP формата : Variable
    Продолжительность : 15 м.
    Вид битрейта : Переменный
    Битрейт : 7687 Кбит/сек
    Максимальный битрейт : 9800 Кбит/сек
    Ширина : 720 пикселей
    Высота : 480 пикселей
    Соотношение сторон : 16:9
    Частота кадров : 23,976 кадра/сек
    Стандарт вещания : Component
    Цветовое пространство : YUV
    Субдискретизация насыщенности : 4:2:0
    Битовая глубина : 8 бит
    Тип развёртки : Прогрессивная
    Порядок развёртки : 2:3 Pulldown
    Метод сжатия : С потерями
    Бит/(Пиксели*Кадры) : 0.928
    TimeCode_FirstFrame : 01:00:00;00
    TimeCode_Source : Group of pictures t_head
    Размер потока : 835 Мбайт (83%)
    Основные цвета : BT.601 NTSC
    Характеристики трансфера : BT.601
    Коэффициенты матрицы : BT.601
    Аудио #1
    Идентификатор : 189 (0xBD)-128 (0x80)
    Формат : AC-3
    Формат/Информация : Audio Coding 3
    Расширение режима : CM (complete main)
    Параметр Endianness формата : Big
    Режим смешивания : DVD-Video
    Продолжительность : 15 м.
    Вид битрейта : Постоянный
    Битрейт : 192 Кбит/сек
    Каналы : 2 канала
    Расположение каналов : Front: L R
    Частота : 48,0 КГц
    Битовая глубина : 16 бит
    Метод сжатия : С потерями
    Размер потока : 20,8 Мбайт (2%)
    Аудио #2
    Идентификатор : 189 (0xBD)-129 (0x81)
    Формат : AC-3
    Формат/Информация : Audio Coding 3
    Расширение режима : CM (complete main)
    Параметр Endianness формата : Big
    Режим смешивания : DVD-Video
    Продолжительность : 15 м.
    Вид битрейта : Постоянный
    Битрейт : 192 Кбит/сек
    Каналы : 2 канала
    Расположение каналов : Front: L R
    Частота : 48,0 КГц
    Битовая глубина : 16 бит
    Метод сжатия : С потерями
    Размер потока : 20,8 Мбайт (2%)
    Аудио #3
    Идентификатор : 189 (0xBD)-130 (0x82)
    Формат : AC-3
    Формат/Информация : Audio Coding 3
    Расширение режима : CM (complete main)
    Параметр Endianness формата : Big
    Режим смешивания : DVD-Video
    Продолжительность : 15 м.
    Вид битрейта : Постоянный
    Битрейт : 192 Кбит/сек
    Каналы : 2 канала
    Расположение каналов : Front: L R
    Частота : 48,0 КГц
    Битовая глубина : 16 бит
    Метод сжатия : С потерями
    Размер потока : 20,8 Мбайт (2%)
    Аудио #4
    Идентификатор : 189 (0xBD)-131 (0x83)
    Формат : AC-3
    Формат/Информация : Audio Coding 3
    Расширение режима : CM (complete main)
    Параметр Endianness формата : Big
    Режим смешивания : DVD-Video
    Продолжительность : 15 м.
    Вид битрейта : Постоянный
    Битрейт : 192 Кбит/сек
    Каналы : 2 канала
    Расположение каналов : Front: L R
    Частота : 48,0 КГц
    Битовая глубина : 16 бит
    Метод сжатия : С потерями
    Размер потока : 20,8 Мбайт (2%)
    Аудио #5
    Идентификатор : 189 (0xBD)-132 (0x84)
    Формат : AC-3
    Формат/Информация : Audio Coding 3
    Расширение режима : CM (complete main)
    Параметр Endianness формата : Big
    Режим смешивания : DVD-Video
    Продолжительность : 15 м.
    Вид битрейта : Постоянный
    Битрейт : 192 Кбит/сек
    Каналы : 2 канала
    Расположение каналов : Front: L R
    Частота : 48,0 КГц
    Битовая глубина : 16 бит
    Метод сжатия : С потерями
    Размер потока : 20,8 Мбайт (2%)
    Аудио #6
    Идентификатор : 189 (0xBD)-133 (0x85)
    Формат : AC-3
    Формат/Информация : Audio Coding 3
    Расширение режима : CM (complete main)
    Параметр Endianness формата : Big
    Режим смешивания : DVD-Video
    Продолжительность : 15 м.
    Вид битрейта : Постоянный
    Битрейт : 192 Кбит/сек
    Каналы : 2 канала
    Расположение каналов : Front: L R
    Частота : 48,0 КГц
    Битовая глубина : 16 бит
    Метод сжатия : С потерями
    Размер потока : 20,8 Мбайт (2%)
    Аудио #7
    Идентификатор : 189 (0xBD)-134 (0x86)
    Формат : AC-3
    Формат/Информация : Audio Coding 3
    Расширение режима : CM (complete main)
    Параметр Endianness формата : Big
    Режим смешивания : DVD-Video
    Продолжительность : 15 м.
    Вид битрейта : Постоянный
    Битрейт : 192 Кбит/сек
    Каналы : 2 канала
    Расположение каналов : Front: L R
    Частота : 48,0 КГц
    Битовая глубина : 16 бит
    Метод сжатия : С потерями
    Размер потока : 20,8 Мбайт (2%)
    Текст
    Идентификатор : 224 (0xE0)-CC3
    Формат : EIA-608
    Режим смешивания, доп. информация : Muxed in Video #1
    Вид битрейта : Постоянный
    Размер потока : 0,00 байт (0%)
    Меню




    Скриншоты

    Релиз:
    Залил: YArl
    Размер скачиваемого торрента: 6.84 GB (7341555712 Bytes)

    Двойной просчет/Double Jeopardy (1999) DVD-9 торрент скачать бесплатно
    загрузка...
    Рейтинг →
     (голосов: 1, оценка 5/5, голосовать можно 1 раз )

    Другие торренты по теме:

  • Двойной просчет / Double Jeopardy (1999) HDTVRip
  • Двойной просчет / Double Jeopardy (1999) WEBRip 1080p | P, P2, A
  • Двойной просчет / Double Jeopardy (1999) WEBRip-AVC от k.e.n NNMClub | D, P, P2, A


    • Комментарии (0):

      Информация

      Информация

        Посетители, находящиеся в группе Гости, не могут оставлять комментарии в данной новости.

        ↓ Меню



        ↓ Опрос

        А Вы добавили сайт в закладки?
        Да
        Не


        Top 10 за месяц (Фильмы)