.
Авторизация | Регистрация
Хочешь лучшие торренты? Добавь свой email!
Добавить
» » Одержимость / Whiplash (2014) BDRip 720p | Лицензия скачать торрент бесплатно




    Одержимость / Whiplash (2014) BDRip 720p | Лицензия скачать торрент бесплатно

    Опубликовал: Админ | Дата: 27-02-2015, 11:10 | Просмотров: 168


    Детально о кино
    Русское название: Одержимость
    Русское название в мировом прокате: Whiplash
    Создали в: 2014
    Категория жанра: Драма
    Главный режиссер: Дамьен Шазель

    Актеры
    Майлз Теллер, Дж.К. Симмонс, Пол Райзер, Мелисса Беноист, Остин Стоуэлл, Нат Лэнг, Крис Малки, Дэймон Гаптон, Макс Кэш, Сюанн Споук

    Сюжет фильма
    Эндрю мечтает стать великим. Казалось бы, вот-вот его мечта осуществится. Юношу замечает настоящий гений, дирижер лучшего в стране оркестра. Желание Эндрю добиться успеха быстро становится одержимостью, а безжалостный наставник продолжает подталкивать его все дальше и дальше — за пределы человеческих возможностей. Кто выйдет победителем из этой схватки?

    Снималось в: США/Bold Films, Blumhouse Productions, Right of Way Films
    Время просмотра: 01:46:45
    Тип перевода: Профессиональное (многоголосное) лицензия
    Файл
    Тип видео: MKV
    Качество фильма: BDRip 720p
    Информация о видео: 5814 Kb/s, 1280x536
    Информация о звуке: Russian: AC3, 384 kb/s (6 ch)/English: DTS, 1510 kb/s (6 ch)
    Дополнительно: Сохранены оригинальные чаптеры как в Blu-ray
    Размер скачиваемого торрента: 5.76 GB
    Скачать:Сэмпл
    Meda Info
    General
    Unique ID : 221009936650137178465827130441930997356 (0xA644F72B04C65003B28CE91D3F197E6C)
    Complete name : 0derzh1m0st.2014.P.BDRip.720p.mkv
    Format : Matroska
    Format version : Version 2
    File size : 5.75 GiB
    Duration : 1h 46mn
    Overall bit rate : 7 711 Kbps
    Encoded date : UTC 2015-02-05 21:15:32
    Writing application : mkvmerge v7.5.0 (;Glass Culture;) 64bit built on Jan 4 2015 16:48:44
    Writing library : libebml v1.3.1 + libmatroska v1.4.2
    DURATION : 01:46:35.712000000
    NUMBER_OF_FRAMES : 199866
    NUMBER_OF_BYTES : 306994176
    _STATISTICS_WRITING_APP : mkvmerge v7.5.0 (;Glass Culture;) 64bit built on Jan 4 2015 16:48:44
    _STATISTICS_WRITING_DATE_UTC : 2015-02-05 21:15:32
    _STATISTICS_TAGS : BPS DURATION NUMBER_OF_FRAMES NUMBER_OF_BYTES
    Video
    ID : 1
    Format : AVC
    Format/Info : Advanced Video Codec
    Format profile : High@L4.1
    Format settings, CABAC : Yes
    Format settings, ReFrames : 5 frames
    Codec ID : V_MPEG4/ISO/AVC
    Duration : 1h 46mn
    Bit rate : 5 814 Kbps
    Width : 1 280 pixels
    Height : 536 pixels
    Display aspect ratio : 2.40:1
    Frame rate mode : Constant
    Frame rate : 23.976 fps
    Color space : YUV
    Chroma subsampling : 4:2:0
    Bit depth : 8 bits
    Scan type : Progressive
    Bits/(Pixel*Frame) : 0.353
    Stream size : 4.22 GiB (73%)
    Writing library : x264 core 144 r2525 40bb568
    Encoding settings : cabac=1/ref=5/deblock=1:0:0/analyse=0x3:0x133/me=umh/subme=7/psy=1/psy_rd=1.00:0.00/mixed_ref=1/me_range=16/chroma_me=1/trellis=1/8x8dct=1/cqm=0/deadzone=21,11/fast_pskip=0/chroma_qp_offset=-2/threads=60/lookahead_threads=4/sliced_threads=0/nr=0/decimate=1/interlaced=0/bluray_compat=0/constrained_intra=0/bframes=3/b_pyramid=2/b_adapt=1/b_bias=0/direct=1/weightb=1/open_gop=0/weightp=2/keyint=250/keyint_min=23/scenecut=40/intra_refresh=0/rc_lookahead=40/rc=2pass/mbtree=1/bitrate=5814/ratetol=1.0/qcomp=0.60/qpmin=0/qpmax=69/qpstep=4/cplxblur=20.0/qblur=0.5/ip_ratio=1.40/aq=1:1.00
    Language : English
    Default : Yes
    Forced : No
    DURATION : 01:46:45.326000000
    NUMBER_OF_FRAMES : 153574
    NUMBER_OF_BYTES : 4656670827
    _STATISTICS_WRITING_APP : mkvmerge v7.5.0 (;Glass Culture;) 64bit built on Jan 4 2015 16:48:44
    _STATISTICS_WRITING_DATE_UTC : 2015-02-05 21:15:32
    _STATISTICS_TAGS : BPS DURATION NUMBER_OF_FRAMES NUMBER_OF_BYTES
    Audio #1
    ID : 2
    Format : AC-3
    Format/Info : Audio Coding 3
    Mode extension : CM (complete main)
    Format settings, Endianness : Big
    Codec ID : A_AC3
    Duration : 1h 46mn
    Bit rate mode : Constant
    Bit rate : 384 Kbps
    Channel(s) : 6 channels
    Channel positions : Front: L C R, Side: L R, LFE
    Sampling rate : 48.0 KHz
    Bit depth : 16 bits
    Compression mode : Lossy
    Stream size : 293 MiB (5%)
    Language : Russian
    Default : Yes
    Forced : No
    Audio #2
    ID : 3
    Format : DTS
    Format/Info : Digital Theater Systems
    Mode : 16
    Format settings, Endianness : Big
    Codec ID : A_DTS
    Duration : 1h 46mn
    Bit rate mode : Constant
    Bit rate : 1 509 Kbps
    Channel(s) : 6 channels
    Channel positions : Front: L C R, Side: L R, LFE
    Sampling rate : 48.0 KHz
    Bit depth : 24 bits
    Compression mode : Lossy
    Stream size : 1.13 GiB (20%)
    Language : English
    Default : No
    Forced : No
    Menu
    00:00:00.000 : en:00:00:00.000
    00:06:51.828 : en:00:06:51.828
    00:14:34.457 : en:00:14:34.457
    00:24:26.382 : en:00:24:26.382
    00:30:06.096 : en:00:30:06.096
    00:35:43.975 : en:00:35:43.975
    00:43:31.359 : en:00:43:31.359
    00:46:55.312 : en:00:46:55.312
    00:53:12.481 : en:00:53:12.481
    01:02:37.504 : en:01:02:37.504
    01:10:30.560 : en:01:10:30.560
    01:14:03.606 : en:01:14:03.606
    01:17:48.789 : en:01:17:48.789
    01:23:06.106 : en:01:23:06.106
    01:25:28.290 : en:01:25:28.290
    01:31:56.219 : en:01:31:56.219
    Скриншоты

    Размер скачиваемого торрента: 5.75 GB (6173983487 Bytes)

    Одержимость/Whiplash (2014) BDRip 720p | Лицензия торрент скачать бесплатно
    загрузка...
    Рейтинг →
     (голосов: 1, оценка 5/5, голосовать можно 1 раз )

    Другие торренты по теме:

  • Одержимость / Possession (2002) DVDRip от Scarabey | P
  • Одержимость / Obsessed (2009) BDRip 1080p
  • Одержимость / Obsessed (2009) BDRip от HQ-ViDEO скачать через торрент бесплатно
  • Одержимость / In-gan-jung-dok (2014) WEB-DLRip | L2 скачать через торрент бесплатно
  • Одержимость вуду / Voodoo Possession (2014) HDRip | L2 скачать через торрент бесплатно
  • Одержимые ночью / Ночная одержимость / Possessed by the Night (1994) DVDRip
  • Одержимость Майкла Кинга HDRip (2014) скачать через торрент бесплатно
  • Одержимость Майкла Кинга / The Possession of Michael King (2014) BDRip 720p | Звук с CAMRip скачать через торрент бесплатно


    • Комментарии (0):

      Информация

      Информация

        Посетители, находящиеся в группе Гости, не могут оставлять комментарии в данной новости.

        ↓ Меню



        ↓ Опрос

        А Вы добавили сайт в закладки?
        Да
        Не


        Top 10 за месяц (Фильмы)