.
Авторизация | Регистрация
Хочешь лучшие торренты? Добавь свой email!
Добавить
» » Каникулы маленького Николя / Les vacances du petit Nicolas (2014) HDRip от BitTracker | Чистый звук скачать торрент бесплатно




    Каникулы маленького Николя / Les vacances du petit Nicolas (2014) HDRip от BitTracker | Чистый звук скачать торрент бесплатно

    Опубликовал: Админ | Дата: 27-02-2015, 11:10 | Просмотров: 163


    Детально о кино
    Русское название:Каникулы маленького Николя
    Русское название в мировом прокате:Les vacances du petit Nicolas
    Создали в:2014
    Категория жанра:комедия
    Главный режиссер:Лоран Тирар

    Актеры
    Матео Бойсселье, Валери Лемерсье, Кад Мерад, Доминик Лаванан, Франсуа-Ксавье Демезон, Були Ланнерс, Лука Дзингаретти, Жюдит Анри, Франсис Перрен, Даниэль Прево

    Сюжет фильма

    Учебный год наконец подошел к концу, и наступили долгожданные каникулы. Малыш Николя с родителями и бабушкой отправляется к морю в отель Красивый берег. У Николя в распоряжении море, отель, лес, друзья, семья, смотритель пляжа и тренер по плаванию — словом, все, чтобы каникулы выдались по-настоящему запоминающимися.
    Не тратя времени даром, Николя сразу же обзаводится новыми друзьями, среди которых: Бен — он не на каникулах, он местный; обжора Фредди — ест все подряд; Джоки — он англичанин, поэтому говорит с смешным акцентом; плакса Криспин, у которого вечно глаза на мокром месте, и зануда Кристофер — он всегда прав и поэтому жутко бесит. Кроме того, Николя знакомится с Элизабет, которая не отходит от Николя ни на шаг. Какая милая парочка! Я уже слышу будущий звон свадебных колоколов! — шутят взрослые. Николя в панике! К счастью, верные друзья приходят ему на выручку и… тут начинаются настоящие проблемы.

    Снималось в:Франция
    Киностудия:Fidlit Films, M6 Films, Saint Sbastien Froissart, Canal+ fr
    Время просмотра:01:37:06
    Перевод текста:Дублированное Чистый звук Официальное
    Файл
    Кодек для видео:AVI (XviD)
    Качество фильма:HDRip Рип с BDRip 720p
    Информация о видео:656x352 (1.86:1), 23.976 fps, XviD build 73 ~936 kbps avg, 0.17 bit/pixel
    Информация о звуке:48 kHz, MPEG Layer 3, 2 ch, ~128.00 kbps avg
    Субтитры:нет
    Семпл
    MediaInfo

    Общее
    Полное имя : S:ФильмыКаникулы маленького Николя. 2014. HDRip (AleksSin).avi
    Формат : AVI
    Формат/Информация : Audio Video Interleave
    Размер файла : 745 Мбайт
    Продолжительность : 1 ч. 37 м.
    Общий поток : 1073 Кбит/сек
    Программа кодирования : VirtualDubMod 1.5.10.3 | www.virtualdub-fr.org || (build 2550/release)
    Библиотека кодирования : VirtualDubMod build 2550/release
    Видео
    Идентификатор : 0
    Формат : MPEG-4 Visual
    Профиль формата : Advanced Simple@L5
    Параметр BVOP формата : 1
    Параметр QPel формата : Нет
    Параметр GMC формата : Без точки перехода
    Параметр матрицы формата : Выборочная
    Идентификатор кодека : XVID
    Идентификатор кодека/Подсказка : XviD
    Продолжительность : 1 ч. 37 м.
    Битрейт : 936 Кбит/сек
    Ширина : 656 пикс.
    Высота : 352 пикс.
    Соотношение сторон : 1,864
    Частота кадров : 23,976 кадр/сек
    Цветовое пространство : YUV
    Подвыборка цветности : 4:2:0
    Битовая глубина : 8 бит
    Тип развёртки : Прогрессивная
    Метод сжатия : С потерями
    Бит/(Пиксели*Кадры) : 0.169
    Размер потока : 650 Мбайт (87%)
    Библиотека кодирования : XviD 73
    Аудио
    Идентификатор : 1
    Формат : MPEG Audio
    Версия формата : Version 1
    Профиль формата : Layer 3
    Идентификатор кодека : 55
    Идентификатор кодека/Подсказка : MP3
    Продолжительность : 1 ч. 37 м.
    Вид битрейта : Постоянный
    Битрейт : 128 Кбит/сек
    Каналы : 2 канала
    Частота : 48,0 КГц
    Метод сжатия : С потерями
    Размер потока : 88,9 Мбайт (12%)
    Выравнивание : Соединение по промежуткам
    Продолжительность промежутка : 42 мс. (1,00 видеокадр)
    Время предзагрузки промежутка : 504 ms
    Библиотека кодирования : LAME3.99r
    Залил: *AleksSin*
    Размер скачиваемого торрента: 745.40 MB (781606912 Bytes)


    Каникулы маленького Николя/Les vacances du petit Nicolas (2014) HDRip от BitTracker | Чистый звук торрент скачать бесплатно
    загрузка...
    Рейтинг →
     (голосов: 1, оценка 5/5, голосовать можно 1 раз )

    Другие торренты по теме:

  • Каникулы маленького Николя (2014)
  • Каникулы маленького Николя / Les vacances du petit Nicolas (2014) HDRip от Scarabey | Чистый звук


    • Комментарии (0):

      Информация

      Информация

        Посетители, находящиеся в группе Гости, не могут оставлять комментарии в данной новости.

        ↓ Меню



        ↓ Опрос

        А Вы добавили сайт в закладки?
        Да
        Не


        Top 10 за месяц (Фильмы)