.
Авторизация | Регистрация
Хочешь лучшие торренты? Добавь свой email!
Добавить
» » Хижина в лесу / The Cabin in the Woods (2011) BDRip 720p от KinoGadget | iPad скачать торрент бесплатно




    Хижина в лесу / The Cabin in the Woods (2011) BDRip 720p от KinoGadget | iPad скачать торрент бесплатно

    Опубликовал: Админ | Дата: 27-02-2015, 11:10 | Просмотров: 134


    Создали в: 2011
    Снималось в: США
    Категория жанра: ужасы, триллер, детектив
    Время просмотра: 01:35:00
    Перевод текста: Дублированный
    Главный режиссер: Дрю Годдард

    Актеры
    Кристен Коннолли, Крис Хемсворт, Анна Хатчисон, Фрэн Кренц, Джесси Уильямс, Брэдли Уитфорд, Ричард Дженкинс, Сигурни Уивер, Брайан Дж. Уайт, Эми Эккер, Том Ленк, Дэн Пэйн, Джоделль Ферланд
    Описание: Шумная компания из пяти друзей сбегает на уик-энд подебоширить в изолированную от всего мира деревенскую хижину. Звучит знакомо? Ну так вы и не представляете, что вас ждёт на самом деле.

    Информация о видео кодек:MPEG-4 AVC
    Качество фильма:BDRip 720p
    Параметры Видео:1280x528, 23.976 fps; ~2 174 kbps avg
    Параметры Звука:48.0 KHz, AAC, ~165.00 kbps avg, 2ch
    Тип видео:mp4
    Релиз:
    Meta Tags


    MI
    General
    Complete name : E:Xizhina_v_lesu.2011.D.BDRip.720p_KinoGadget.mp4
    Format : MPEG-4
    Format profile : Base Media
    Codec ID : isom
    File size : 1.56 GiB
    Duration : 1h 35mn
    Overall bit rate mode : Variable
    Overall bit rate : 2 348 Kbps
    Movie name : Хижина в лесу
    Performer : Дрю Годдард
    Genre : Horror, Mystery, Thriller
    ContentType : Short Film
    Recorded date : 2011
    Encoded date : UTC 2015-02-04 14:56:33
    Tagged date : UTC 2015-02-04 15:04:13
    Cover : Yes
    ContentRating : mpaa|R|400|
    LongDeion : Шумная компания из пяти друзей сбегает на уик-энд подебоширить в изолированную от всего мира деревенскую хижину. Звучит знакомо? Ну так вы и не представляете, что вас ждёт на самом деле.
    HDVideo : Yes
    Video
    ID : 1
    Format : AVC
    Format/Info : Advanced Video Codec
    Format profile : High@L4.1
    Format settings, CABAC : Yes
    Format settings, ReFrames : 11 frames
    Codec ID : avc1
    Codec ID/Info : Advanced Video Coding
    Duration : 1h 35mn
    Bit rate : 2 174 Kbps
    Maximum bit rate : 14.4 Mbps
    Width : 1 280 pixels
    Height : 528 pixels
    Display aspect ratio : 2.40:1
    Frame rate mode : Constant
    Frame rate : 23.976 fps
    Color space : YUV
    Chroma subsampling : 4:2:0
    Bit depth : 8 bits
    Scan type : Progressive
    Bits/(Pixel*Frame) : 0.134
    Stream size : 1.44 GiB (93%)
    Writing library : x264 core 144 r2525 40bb568
    Encoding settings : cabac=1/ref=11/deblock=1:-1:-1/analyse=0x3:0x133/me=umh/subme=10/psy=1/psy_rd=1.00:0.20/mixed_ref=1/me_range=24/chroma_me=1/trellis=2/8x8dct=1/cqm=0/deadzone=21,11/fast_pskip=1/chroma_qp_offset=-3/threads=3/lookahead_threads=1/sliced_threads=0/nr=0/decimate=1/interlaced=0/bluray_compat=0/constrained_intra=0/bframes=8/b_pyramid=2/b_adapt=2/b_bias=0/direct=3/weightb=1/open_gop=0/weightp=2/keyint=240/keyint_min=23/scenecut=40/intra_refresh=0/rc_lookahead=60/rc=crf/mbtree=1/crf=21.0/qcomp=0.60/qpmin=0/qpmax=69/qpstep=4/ip_ratio=1.40/aq=1:1.50
    Encoded date : UTC 2015-02-04 08:05:01
    Tagged date : UTC 2015-02-04 14:57:09
    Audio
    ID : 2
    Format : AAC
    Format/Info : Advanced Audio Codec
    Format profile : LC
    Codec ID : 40
    Duration : 1h 34mn
    Duration_FirstFrame : 64ms
    Bit rate mode : Variable
    Bit rate : 165 Kbps
    Maximum bit rate : 232 Kbps
    Channel count : 2 channels
    Channel positions : Front: L R
    Sampling rate : 48.0 KHz
    Compression mode : Lossy
    Delay relative to video : 192ms
    Stream size : 112 MiB (7%)
    Language : Russian
    Tagged date : UTC 2015-02-04 14:57:09

    Скриншоты


    Залил: KinoGadget
    Размер скачиваемого торрента: 1.56 GB (1672813196 Bytes)

    Хижина в лесу/The Cabin in the Woods (2011) BDRip 720p от KinoGadget | iPad торрент скачать бесплатно
    загрузка...
    Рейтинг →
     (голосов: 1, оценка 3/5, голосовать можно 1 раз )

    Другие торренты по теме:

  • Хижина в лесу / The Cabin in the Woods (2011) BDRip-AVC | iPad
  • OST - Хижина в лесу / The Cabin in the Woods (2012) MP3
  • Хижина в лесу / The Cabin in the Woods (2011) HDRip | Карповский скачать через торрент бесплатно
  • Хижина в лесу / The Cabin in the Woods (2011) BDRemux 1080p | D
  • Хижина в лесу / The Cabin in the Woods (2011) BDRip 720p от HELLYWOOD | D, A, L1
  • Хижина в лесу / The Cabin in the Woods (2011) BDRemux 1080p | D, A, L1


    • Комментарии (0):

      Информация

      Информация

        Посетители, находящиеся в группе Гости, не могут оставлять комментарии в данной новости.

        ↓ Меню



        ↓ Опрос

        А Вы добавили сайт в закладки?
        Да
        Не


        Top 10 за месяц (Фильмы)