.
Авторизация | Регистрация
Хочешь лучшие торренты? Добавь свой email!
Добавить
» » Интервью / The Interview (2014) BDRip 1080p | L2, A скачать торрент бесплатно




    Интервью / The Interview (2014) BDRip 1080p | L2, A скачать торрент бесплатно

    Опубликовал: Админ | Дата: 27-02-2015, 11:10 | Просмотров: 171


    Детально о кино
    Русское название:Интервью
    Русское название в мировом прокате:The Interview
    Создали в:2014
    Категория жанра:комедия, боевик
    Главный режиссер:Сет Роген, Эван Голдберг

    Актеры
    Джеймс Франко, Сет Роген, Лиззи Каплан, Рэндолл Парк, Диана Банг, Тимоти С. Саймонс, Риз Александр, Джеймс Йи, Пол Бай, Джофф Густафссон

    Сюжет фильма

    Дэйв — фантастически талантливый журналист популярного ток-шоу, продюсирует которое его лучший друг Аарон. Друзья, давно мечтавшие сделать что-то по-настоящему значимое, решают взять интервью у северокорейского диктатора Ким Чен Ына. Вскоре к ним обращается ЦРУ, которое просит наших героев ни много ни мало — убить Кима. Так начинается веселая история о двух наименее квалифицированных наемных убийцах в истории человечества…


    Снималось в:США
    Время просмотра:01:52:11
    Перевод текста:
    Любительский двухголосый, закадровый Студия Пиратского Дубляжа
    Авторский одноголосый Д. Есарев
    Файл
    Кодек для видео:H.264
    Качество фильма:BDRip 1080p | L2, A
    Информация о видео:MPEG-4/AVC, 1920x808 (2.40:1), 23.976 fps ~ 8620 Kbps
    Информация о звуке:
    Аудио #1: AC3, 48 KHz 6 ch ~ 384 Kb/s Студия Пиратского Дубляжа
    Аудио #2: AC3, 6 ch, 384 Kb/s Д. Есарев
    Аудио #3: DTS-HD MA, 48 KHz 6 ch ~ 2059/1510 Kb/s, 24-bit Английский
    Субтитры:
    английские
    MI:

    Общее
    Уникальный идентификатор : 224172810456910117359476327474304148133 (0xA8A61CE2ED78ADBB8876E3C4F90462A5)
    Полное имя : Q:TorFThe.Interview.2014.1080p.BluRay.x264.mkv
    Формат : Matroska
    Версия формата : Version 2
    Размер файла : 9,09 Гбайт
    Продолжительность : 1 ч. 52 м.
    Режим общего битрейта : Переменный
    Общий поток : 11,6 Мбит/сек
    Название фильма : RARBG.COM - The.Interview.2014.1080p.BluRay.x264.DTS-HD.MA.5.1-RARBG
    Дата кодирования : UTC 2015-02-02 06:25:03
    Программа кодирования : mkvmerge v5.4.0 (;Piper;) built on Mar 10 2012 13:34:39
    Библиотека кодирования : libebml v1.2.3 + libmatroska v1.3.0
    Видео
    Идентификатор : 1
    Формат : AVC
    Формат/Информация : Advanced Video Codec
    Профиль формата : High@L4.1
    Параметр CABAC формата : Да
    Параметр ReFrames формата : 5 кадров
    Режим смешивания : Header stripping
    Идентификатор кодека : V_MPEG4/ISO/AVC
    Продолжительность : 1 ч. 52 м.
    Битрейт : 8624 Кбит/сек
    Ширина : 1920 пикселей
    Высота : 808 пикселей
    Соотношение сторон : 2,40:1
    Частота кадров : 23,976 кадра/сек
    Цветовое пространство : YUV
    Субдискретизация насыщенности : 4:2:0
    Битовая глубина : 8 бит
    Тип развёртки : Прогрессивная
    Бит/(Пиксели*Кадры) : 0.232
    Размер потока : 6,69 Гбайт (74%)
    Заголовок : The.Interview.2014.1080p.BluRay.x264.DTS-HD.MA.5.1-RARBG
    Библиотека кодирования : x264 core 144 r2525 40bb568
    Настройки программы : cabac=1/ref=5/deblock=1:0:0/analyse=0x3:0x133/me=umh/subme=7/psy=1/psy_rd=1.00:0.00/mixed_ref=1/me_range=16/chroma_me=1/trellis=1/8x8dct=1/cqm=0/deadzone=21,11/fast_pskip=0/chroma_qp_offset=-2/threads=18/lookahead_threads=3/sliced_threads=0/nr=0/decimate=1/interlaced=0/bluray_compat=0/constrained_intra=0/bframes=3/b_pyramid=2/b_adapt=1/b_bias=0/direct=1/weightb=1/open_gop=0/weightp=2/keyint=250/keyint_min=23/scenecut=40/intra_refresh=0/rc_lookahead=40/rc=2pass/mbtree=1/bitrate=8624/ratetol=1.0/qcomp=0.60/qpmin=0/qpmax=69/qpstep=4/cplxblur=20.0/qblur=0.5/ip_ratio=1.40/aq=1:1.00
    Язык : English
    Default : Да
    Forced : Нет
    Аудио #1
    Идентификатор : 2
    Формат : AC-3
    Формат/Информация : Audio Coding 3
    Расширение режима : CM (complete main)
    Режим смешивания : Header stripping
    Идентификатор кодека : A_AC3
    Продолжительность : 1 ч. 52 м.
    Вид битрейта : Постоянный
    Битрейт : 384 Кбит/сек
    Каналы : 6 каналов
    Расположение каналов : Front: L C R, Side: L R, LFE
    Частота : 48,0 КГц
    Битовая глубина : 16 бит
    Метод сжатия : С потерями
    Размер потока : 308 Мбайт (3%)
    Заголовок : DVO
    Язык : Russian
    Default : Да
    Forced : Нет
    Аудио #2
    Идентификатор : 3
    Формат : AC-3
    Формат/Информация : Audio Coding 3
    Расширение режима : CM (complete main)
    Режим смешивания : Header stripping
    Идентификатор кодека : A_AC3
    Продолжительность : 1 ч. 52 м.
    Вид битрейта : Постоянный
    Битрейт : 384 Кбит/сек
    Каналы : 6 каналов
    Расположение каналов : Front: L C R, Side: L R, LFE
    Частота : 48,0 КГц
    Битовая глубина : 16 бит
    Метод сжатия : С потерями
    Размер потока : 308 Мбайт (3%)
    Заголовок : D.E
    Язык : Russian
    Default : Нет
    Forced : Нет
    Аудио #3
    Идентификатор : 4
    Формат : DTS
    Формат/Информация : Digital Theater Systems
    Профиль формата : MA/Core
    Режим смешивания : Header stripping
    Идентификатор кодека : A_DTS
    Продолжительность : 1 ч. 52 м.
    Вид битрейта : Переменный
    Битрейт : 2059 Кбит/сек/1510 Кбит/сек
    Каналы : 6 каналов
    Расположение каналов : Front: L C R, Side: L R, LFE
    Частота : 48,0 КГц
    Битовая глубина : 16 бит
    Метод сжатия : Без потерь/Lossy
    Заголовок : The.Interview.2014.1080p.BluRay.x264.DTS-HD.MA.5.1
    Язык : English
    Default : Нет
    Forced : Нет
    Текст #1
    Идентификатор : 5
    Формат : UTF-8
    Идентификатор кодека : S_TEXT/UTF8
    Идентификатор кодека/Информация : UTF-8 Plain Text
    Язык : English
    Default : Нет
    Forced : Нет
    Текст #2
    Идентификатор : 6
    Формат : UTF-8
    Идентификатор кодека : S_TEXT/UTF8
    Идентификатор кодека/Информация : UTF-8 Plain Text
    Заголовок : SDH
    Язык : English
    Default : Нет
    Forced : Нет
    Меню
    00:00:00.000 : en:00:00:00.000
    00:06:44.279 : en:00:06:44.279
    00:13:59.881 : en:00:13:59.881
    00:20:27.810 : en:00:20:27.810
    00:27:12.172 : en:00:27:12.172
    00:35:29.961 : en:00:35:29.961
    00:42:34.761 : en:00:42:34.761
    00:51:50.316 : en:00:51:50.316
    01:02:02.344 : en:01:02:02.344
    01:11:23.446 : en:01:11:23.446
    01:18:32.374 : en:01:18:32.374
    01:26:38.110 : en:01:26:38.110
    01:33:25.725 : en:01:33:25.725
    01:37:49.072 : en:01:37:49.072
    01:41:44.056 : en:01:41:44.056
    01:46:18.706 : en:01:46:18.706

    Семпл
    Скриншоты

    Релиз подготовил:RARBG
    Размер скачиваемого торрента: 9.09 GB (9759270254 Bytes)

    Интервью/The Interview (2014) BDRip 1080p | L2, A торрент скачать бесплатно
    загрузка...
    Рейтинг →
     (голосов: 1, оценка 4/5, голосовать можно 1 раз )

    Другие торренты по теме:

  • Анатолий Кашпировский - Интервью Дмитрию Гордону (2017) SATRip
  • Интервью с вампиром / Interview with the Vampire: The Vampire Chronicles (1994) BDRip 720p | D, P2, A
  • Познер. Интервью с Аленом Делоном (2012) SATRip
  • Познер. Интервью с Юрием Башметом (2012) HDTV 1080i
  • Познер. Интервью с Сергеем Капковым (2013) SATRip
  • Каббала. Интервью с будущим (2006) WEB-DLRip 720p
  • Интервью / Interview (2006) DVDRip от Scarabey | P2
  • Познер. Интервью с Валерием Федоровым (2013) SATRip


    • Комментарии (0):

      Информация

      Информация

        Посетители, находящиеся в группе Гости, не могут оставлять комментарии в данной новости.

        ↓ Меню



        ↓ Опрос

        А Вы добавили сайт в закладки?
        Да
        Не


        Top 10 за месяц (Фильмы)