.
Авторизация | Регистрация
Хочешь лучшие торренты? Добавь свой email!
Добавить
» » Джон Уик / John Wick (2014) BDRip 1080p | D, A скачать через торрент бесплатно




    Джон Уик / John Wick (2014) BDRip 1080p | D, A скачать через торрент бесплатно

    Опубликовал: Админ | Дата: 27-02-2015, 11:10 | Просмотров: 105



    Детально о кино
    Русское название: Джон Уик
    Русское название в мировом прокате: John Wick
    Создали в: 2014
    Категория жанра:боевик, триллер
    Главный режиссер: Дэвид Лейтч, Чад Стахелски

    Актеры
    Киану Ривз, Микаэл Нюквист, Элфи Оуэн-Аллен, Уиллем Дефо, Дин Уинтерс, Эдрианн Палики, Омер Барнеа, Тоби Мур, Дэниэл Бернхард, Бриджет Мойнэхэн


    Сюжет фильма
    Джон Уик — бывший наемный убийца — ведет размеренную жизнь, когда преступник крадет его любимый Mustang 1969 года и попутно убивает собаку Дейзи, единственное живое напоминание об умершей жене. Жажда мести пробуждает в нем, казалось, утерянную хватку…



    Снималось в: Китай, Канада, США/87Eleven, Company Films, DefyNite Films
    Время просмотра: 01:41:12
    Перевод текста:Профессиональный(полное дублирование)
    Авторский(одноголосый, закадровый)-Д. Есарев, А. Матвеев

    Файл
    Качество фильма:BDRip 1080p
    Тип видео: MKV
    Информация о видео: MPEG4/AVC, 9424 Кбит/сек, 1920х800 (2.40:1), 23.976 кадра/сек
    Информация о звуке 1: AC3, 6 каналов, 448 Кбит/сек |Русский
    Информация о звуке 2: AC3, 6 каналов, 448 Кбит/сек |Русский - Матвеев
    Информация о звуке 3: AC3, 6 каналов, 448 Кбит/сек |Русский - Есарев
    Информация о звуке 4: DTS, 6 каналов, 1509 Кбит/сек |Русский
    Информация о звуке 5: DTS, 6 каналов, 1509 Кбит/сек |Русский - Матвеев
    Информация о звуке 6: DTS, 6 каналов, 1509 Кбит/сек |Русский - Есарев
    Информация о звуке 7: DTS, 6 каналов, 1509 Кбит/сек |Английский
    Информация о звуке 8: AC3, 2 канала, 224 Кбит/сек |Английский - Director;s Commentary
    Субтитры: Русские (Forced animated, Forced, Full), украинские, английские (Full, SDH)
    Навигация по главам: Есть

    MediaInfo:
    Общее
    Уникальный идентификатор : 224525407863070976718749359807700340999 (0xA8EA0547DF256D4EAC92A84075671107)
    Полное имя : John Wick. (2014) BDRip 1080p.mkv
    Формат : Matroska
    Версия формата : Version 2
    Размер файла : 12,3 Гбайт
    Продолжительность : 1 ч. 41 м.
    Общий поток : 17,4 Мбит/сек
    Название фильма : John Wick. 2014
    Дата кодирования : UTC 2015-02-01 12:26:50
    Программа кодирования : mkvmerge v5.8.0 (;No Sleep/Pillow;) built on Sep 2 2012 15:37:04
    Библиотека кодирования : libebml v1.2.3 + libmatroska v1.3.0

    Видео
    Идентификатор : 1
    Формат : AVC
    Формат/Информация : Advanced Video Codec
    Профиль формата : High@L4.1
    Параметр CABAC формата : Да
    Параметр ReFrames формата : 5 кадров
    Идентификатор кодека : V_MPEG4/ISO/AVC
    Продолжительность : 1 ч. 41 м.
    Битрейт : 9424 Кбит/сек
    Ширина : 1920 пикселей
    Высота : 800 пикселей
    Соотношение сторон : 2,40:1
    Режим частоты кадров : Постоянный
    Частота кадров : 23,976 кадра/сек
    Цветовое пространство : YUV
    Субдискретизация насыщенности : 4:2:0
    Битовая глубина : 8 бит
    Тип развёртки : Прогрессивная
    Бит/(Пиксели*Кадры) : 0.256
    Размер потока : 6,66 Гбайт (54%)
    Заголовок : LEGi0N
    Библиотека кодирования : x264 core 144 r2525 40bb568
    Настройки программы : cabac=1/ref=5/deblock=1:-3:-3/analyse=0x3:0x113/me=umh/subme=10/psy=1/psy_rd=1.00:0.15/mixed_ref=1/me_range=48/chroma_me=1/trellis=2/8x8dct=1/cqm=0/deadzone=21,11/fast_pskip=1/chroma_qp_offset=-5/threads=12/lookahead_threads=2/sliced_threads=0/nr=0/decimate=1/interlaced=0/bluray_compat=0/constrained_intra=0/bframes=9/b_pyramid=2/b_adapt=2/b_bias=0/direct=1/weightb=1/open_gop=0/weightp=2/keyint=240/keyint_min=23/scenecut=40/intra_refresh=0/rc_lookahead=120/rc=crf/mbtree=1/crf=16.5/qcomp=0.60/qpmin=0/qpmax=69/qpstep=4/vbv_maxrate=30000/vbv_bufsize=38000/crf_max=0.0/nal_hrd=none/filler=0/ip_ratio=1.40/aq=1:1.00
    Язык : English
    Default : Да
    Forced : Нет
    Основные цвета : BT.709
    Характеристики трансфера : BT.709
    Коэффициенты матрицы : BT.709

    Аудио #1
    Идентификатор : 2
    Формат : AC-3
    Формат/Информация : Audio Coding 3
    Расширение режима : CM (complete main)
    Параметр Endianness формата : Big
    Идентификатор кодека : A_AC3
    Продолжительность : 1 ч. 41 м.
    Вид битрейта : Постоянный
    Битрейт : 448 Кбит/сек
    Каналы : 6 каналов
    Расположение каналов : Front: L C R, Side: L R, LFE
    Частота : 48,0 КГц
    Битовая глубина : 16 бит
    Метод сжатия : С потерями
    Размер потока : 324 Мбайт (3%)
    Заголовок : AC3 | DUB
    Язык : Russian
    Default : Да
    Forced : Нет

    Аудио #2
    Идентификатор : 3
    Формат : AC-3
    Формат/Информация : Audio Coding 3
    Расширение режима : CM (complete main)
    Параметр Endianness формата : Big
    Идентификатор кодека : A_AC3
    Продолжительность : 1 ч. 41 м.
    Вид битрейта : Постоянный
    Битрейт : 448 Кбит/сек
    Каналы : 6 каналов
    Расположение каналов : Front: L C R, Side: L R, LFE
    Частота : 48,0 КГц
    Битовая глубина : 16 бит
    Метод сжатия : С потерями
    Размер потока : 324 Мбайт (3%)
    Заголовок : A | AC3 | Матвеев
    Язык : Russian
    Default : Нет
    Forced : Нет

    Аудио #3
    Идентификатор : 4
    Формат : AC-3
    Формат/Информация : Audio Coding 3
    Расширение режима : CM (complete main)
    Параметр Endianness формата : Big
    Идентификатор кодека : A_AC3
    Продолжительность : 1 ч. 41 м.
    Вид битрейта : Постоянный
    Битрейт : 448 Кбит/сек
    Каналы : 6 каналов
    Расположение каналов : Front: L C R, Side: L R, LFE
    Частота : 48,0 КГц
    Битовая глубина : 16 бит
    Метод сжатия : С потерями
    Размер потока : 324 Мбайт (3%)
    Заголовок : A | AC3 | Есарев
    Язык : Russian
    Default : Нет
    Forced : Нет

    Аудио #4
    Идентификатор : 5
    Формат : DTS
    Формат/Информация : Digital Theater Systems
    Режим : 16
    Параметр Endianness формата : Big
    Идентификатор кодека : A_DTS
    Продолжительность : 1 ч. 41 м.
    Вид битрейта : Постоянный
    Битрейт : 1509 Кбит/сек
    Каналы : 6 каналов
    Расположение каналов : Front: L C R, Side: L R, LFE
    Частота : 48,0 КГц
    Битовая глубина : 16 бит
    Метод сжатия : С потерями
    Размер потока : 1,07 Гбайт (9%)
    Заголовок : DTS | DUB
    Язык : Russian
    Default : Нет
    Forced : Нет

    Аудио #5
    Идентификатор : 6
    Формат : DTS
    Формат/Информация : Digital Theater Systems
    Режим : 16
    Параметр Endianness формата : Big
    Идентификатор кодека : A_DTS
    Продолжительность : 1 ч. 41 м.
    Вид битрейта : Постоянный
    Битрейт : 1509 Кбит/сек
    Каналы : 6 каналов
    Расположение каналов : Front: L C R, Side: L R, LFE
    Частота : 48,0 КГц
    Битовая глубина : 24 бит
    Метод сжатия : С потерями
    Размер потока : 1,07 Гбайт (9%)
    Заголовок : A | DTS | Матвеев
    Язык : Russian
    Default : Нет
    Forced : Нет

    Аудио #6
    Идентификатор : 7
    Формат : DTS
    Формат/Информация : Digital Theater Systems
    Режим : 16
    Параметр Endianness формата : Big
    Идентификатор кодека : A_DTS
    Продолжительность : 1 ч. 41 м.
    Вид битрейта : Постоянный
    Битрейт : 1509 Кбит/сек
    Каналы : 6 каналов
    Расположение каналов : Front: L C R, Side: L R, LFE
    Частота : 48,0 КГц
    Битовая глубина : 24 бит
    Метод сжатия : С потерями
    Размер потока : 1,07 Гбайт (9%)
    Заголовок : A | DTS | Есарев
    Язык : Russian
    Default : Нет
    Forced : Нет

    Аудио #7
    Идентификатор : 8
    Формат : DTS
    Формат/Информация : Digital Theater Systems
    Режим : 16
    Параметр Endianness формата : Big
    Идентификатор кодека : A_DTS
    Продолжительность : 1 ч. 41 м.
    Вид битрейта : Постоянный
    Битрейт : 1509 Кбит/сек
    Каналы : 6 каналов
    Расположение каналов : Front: L C R, Side: L R, LFE
    Частота : 48,0 КГц
    Битовая глубина : 24 бит
    Метод сжатия : С потерями
    Размер потока : 1,07 Гбайт (9%)
    Заголовок : Original
    Язык : English
    Default : Нет
    Forced : Нет

    Аудио #8
    Идентификатор : 9
    Формат : AC-3
    Формат/Информация : Audio Coding 3
    Профиль формата : Dolby Digital
    Расширение режима : CM (complete main)
    Параметр Endianness формата : Big
    Идентификатор кодека : A_AC3
    Продолжительность : 1 ч. 41 м.
    Вид битрейта : Постоянный
    Битрейт : 224 Кбит/сек
    Каналы : 2 канала
    Расположение каналов : Front: L R
    Частота : 48,0 КГц
    Битовая глубина : 16 бит
    Метод сжатия : С потерями
    Размер потока : 162 Мбайт (1%)
    Заголовок : Director;s Commentary
    Язык : English
    Default : Нет
    Forced : Нет

    Текст #1
    Идентификатор : 10
    Формат : ASS
    Идентификатор кодека : S_TEXT/ASS
    Идентификатор кодека/Информация : Advanced Sub Station Alpha
    Метод сжатия : Без потерь
    Заголовок : Forced | Анимированные
    Язык : Russian
    Default : Да
    Forced : Да

    Текст #2
    Идентификатор : 11
    Формат : UTF-8
    Идентификатор кодека : S_TEXT/UTF8
    Идентификатор кодека/Информация : UTF-8 Plain Text
    Заголовок : Forced
    Язык : Russian
    Default : Нет
    Forced : Нет

    Текст #3
    Идентификатор : 12
    Формат : UTF-8
    Идентификатор кодека : S_TEXT/UTF8
    Идентификатор кодека/Информация : UTF-8 Plain Text
    Заголовок : Full
    Язык : Russian
    Default : Нет
    Forced : Нет

    Текст #4
    Идентификатор : 13
    Формат : UTF-8
    Идентификатор кодека : S_TEXT/UTF8
    Идентификатор кодека/Информация : UTF-8 Plain Text
    Заголовок : Full
    Язык : Ukrainian
    Default : Нет
    Forced : Нет

    Текст #5
    Идентификатор : 14
    Формат : UTF-8
    Идентификатор кодека : S_TEXT/UTF8
    Идентификатор кодека/Информация : UTF-8 Plain Text
    Заголовок : Full
    Язык : English
    Default : Нет
    Forced : Нет

    Текст #6
    Идентификатор : 15
    Формат : UTF-8
    Идентификатор кодека : S_TEXT/UTF8
    Идентификатор кодека/Информация : UTF-8 Plain Text
    Заголовок : SDH
    Язык : English
    Default : Нет
    Forced : Нет

    Меню
    00:00:00.000 : en:00:00:00.000
    00:04:57.506 : en:00:04:57.506
    00:12:21.866 : en:00:12:21.866
    00:17:07.735 : en:00:17:07.735
    00:26:25.167 : en:00:26:25.167
    00:32:40.250 : en:00:32:40.250
    00:36:24.599 : en:00:36:24.599
    00:42:16.033 : en:00:42:16.033
    00:45:33.272 : en:00:45:33.272
    00:55:02.507 : en:00:55:02.507
    00:59:27.564 : en:00:59:27.564
    01:06:13.428 : en:01:06:13.428
    01:14:15.910 : en:01:14:15.910
    01:19:13.040 : en:01:19:13.040
    01:27:29.786 : en:01:27:29.786
    01:32:24.789 : en:01:32:24.789



    Релиз подготовил:
    Размер скачиваемого торрента: 12.28 GB (13188942621 Bytes)

    Джон Уик/John Wick (2014) BDRip 1080p | D, A скачать через торрент бесплатно
    загрузка...
    Рейтинг →
     (голосов: 1, оценка 4/5, голосовать можно 1 раз )

    Другие торренты по теме:

  • Джон Уик 2 / John Wick: Chapter Two (2017) BDRip от HQ-ViDEO | Лицензия
  • Джон Уик 2 / John Wick: Chapter Two (2017) BDRip от ExKinoRay | D | Лицензия
  • Джон Уик (2014) скачать через торрент бесплатно
  • Джон Уик / John Wick (2014) CAMRip скачать через торрент бесплатно
  • Джон Уик / John Wick (2014) WEB-DLRip | A
  • Джон Уик / John Wick (2014) WEB-DLRip-AVC | A, L2 скачать через торрент бесплатно
  • Джон Уик / John Wick (2014) WEB-DLRip от Scarabey | Чистый звук скачать через торрент бесплатно
  • Джон Уик / John Wick (2014) WEB-DLRip от Scarabey | Чистый звук


    • Комментарии (0):

      Информация

      Информация

        Посетители, находящиеся в группе Гости, не могут оставлять комментарии в данной новости.

        ↓ Меню



        ↓ Опрос

        А Вы добавили сайт в закладки?
        Да
        Не


        Top 10 за месяц (Фильмы)