.
Авторизация | Регистрация
Хочешь лучшие торренты? Добавь свой email!
Добавить
» » Мы ждём вас с победой (1941) DVDRip от New-Team скачать торрент бесплатно




    Мы ждём вас с победой (1941) DVDRip от New-Team скачать торрент бесплатно

    Опубликовал: Админ | Дата: 27-02-2015, 11:10 | Просмотров: 144


    Снималось в: СССР
    Создали в: Мосфильм
    Категория жанра: музыка
    Создали в: 1941
    Время просмотра: 00:33:54
    Перевод текста:Не требуется
    Субтитры подготовлены: нет
    Оригинальная аудиодорожка: русский
    Главный режиссер: Илья Трауберг, Александр Медведкин

    Актеры

    Вячеслав Гостинский, Галина Фролова, Борис Чирков, Лидия Смирнова, А. Кузнецова...
    Участвуют:
    Гос. народный хор им. Пятницкого п/р В. Захарова и П. Казьмина, Краснознаменный ансамбль красноармейской песни и пляски СССР п/р А. Александрова, Гос. ансамбль народных танцев п/р И. Моисеева.
    Описание:
    В фильме исполняются музыкальные номера Прощальная, Иди, любимый, На заре, на зорюшке, До свиданья, города и хаты, Оборонные частушки, Красноармейская пляска, Кадриль, Колхозная сюита. В финале поется Священная война — это одно из первых ее исполнений. Часть съемок была произведена в декорациях к фильму Свинарка и пастух.



    Источник:DVD5 R5
    Качество фильма видео:DVDRip
    Тип видео видео: AVI
    Информация о видео: 688x512 (4:3), 25 fps, XviD ~ 1842 kbps avg, 0.209 bit/pixel
    Информация о звуке: 48 kHz, Dolby Digital AC3 2.0, 192 kbps
    Раздача от:
    MediaInfo

    Общее
    Полное имя : My.zhdem.vas.s.pobedoy.1941.DVDRip_New-team_by_AVP_Studio.avi
    Формат : AVI
    Формат/Информация : Audio Video Interleave
    Размер файла : 496 Мбайт
    Продолжительность : 33 м.
    Общий поток : 2044 Кбит/сек
    Программа кодирования : VirtualDubModRus 1.5.10.2 (build 2542/release)
    Библиотека кодирования : VirtualDubMod build 2542/release
    Видео
    Идентификатор : 0
    Формат : MPEG-4 Visual
    Профиль формата : Advanced Simple@L5
    Параметр BVOP формата : 1
    Параметр QPel формата : Нет
    Параметр GMC формата : Без точки перехода
    Параметр матрицы формата : Выборочная
    Идентификатор кодека : XVID
    Идентификатор кодека/Подсказка : XviD
    Продолжительность : 33 м.
    Битрейт : 1842 Кбит/сек
    Ширина : 688 пикселей
    Высота : 512 пикселей
    Соотношение сторон : 4:3
    Частота кадров : 25,000 кадров/сек
    Цветовое пространство : YUV
    Субдискретизация насыщенности : 4:2:0
    Битовая глубина : 8 бит
    Тип развёртки : Прогрессивная
    Метод сжатия : С потерями
    Бит/(Пиксели*Кадры) : 0.209
    Размер потока : 447 Мбайт (90%)
    Библиотека кодирования : XviD 73
    Аудио
    Идентификатор : 1
    Формат : AC-3
    Формат/Информация : Audio Coding 3
    Расширение режима : CM (complete main)
    Параметр Endianness формата : Big
    Идентификатор кодека : 2000
    Продолжительность : 33 м.
    Вид битрейта : Постоянный
    Битрейт : 192 Кбит/сек
    Каналы : 2 канала
    Расположение каналов : Front: L R
    Частота : 48,0 КГц
    Битовая глубина : 16 бит
    Метод сжатия : С потерями
    Размер потока : 46,6 Мбайт (9%)
    Выравнивание : Разделение по промежуткам
    Продолжительность промежутка : 40 мс. (1,00 видеокадр)
    Время предзагрузки промежутка : 500 мс

    Скриншоты



    Залил: AVPStudio
    Размер скачиваемого торрента: 495.66 MB (519733248 Bytes)

    Мы ждём вас с победой (1941) DVDRip от New-Team торрент скачать бесплатно
    загрузка...
    Рейтинг →
     (голосов: 1, оценка 5/5, голосовать можно 1 раз )

    Другие торренты по теме:

  • Игорь Кириллов. Как молоды мы были (2017) WEBRip 720p от Files-х
  • Мы с ней очень любим ложь / The Liar and His Lover (2013) HDRip | L2
  • Что мы делаем в темноте / Чем мы занимаемся в тени / What We Do in the Shadows скачать через торрент бесплатно
  • Самое большое простое число - Мы - огромное животное, и мы вас всех съедим! (2016) MP3
  • Калбазов Константин - Росич 3. Мы наш, мы новый… (2017) MP3
  • Мы молоды. Мы сильны. / Wir sind jung. Wir sind stark. (2014) HDRip-AVC | Sub
  • 5sta Family - Вместе Мы (2012) HD 720p
  • Когда мы встретились / Jab We Met (2007) BDRip-AVC от Тorrent-Хzona | P


    • Комментарии (0):

      Информация

      Информация

        Посетители, находящиеся в группе Гости, не могут оставлять комментарии в данной новости.

        ↓ Меню



        ↓ Опрос

        А Вы добавили сайт в закладки?
        Да
        Не


        Top 10 за месяц (Фильмы)