.
Авторизация | Регистрация
Хочешь лучшие торренты? Добавь свой email!
Добавить
» » Давай знакомиться. Фильм / Hello Ladies: The Movie (2014) HDTVRip-AVC | L1 скачать через торрент бесплатно




    Давай знакомиться. Фильм / Hello Ladies: The Movie (2014) HDTVRip-AVC | L1 скачать через торрент бесплатно

    Опубликовал: Админ | Дата: 27-02-2015, 11:10 | Просмотров: 171


    Детально о кино
    Русское название:Давай знакомиться. Фильм
    Русское название в мировом прокате:Hello Ladies: The Movie
    Создали в:2014
    Категория жанра:Комедия
    Главный режиссер:Стивен Мерчант

    Актеры
    Стивен Мерчант, Кристин Вудс, Ванесса Энджел, Карли Крэйг, Майкл Хайатт, Кевин Уайзман, Криста Флэнеган, Нейт Торренс, Джонни 5, Стефани Корнелиуссен

    Сюжет фильма

    Стюарт - благополучный но слегка закомплексованный мужчина в самом расцвете сил. Он недавно расстался со своей подругой и переехал в Лос Анджелес. Когда его бывшая приезжает к нему в гости, он решает сделать все, чтобы произвести впечатление сверхуспешного человека: хвастается знакомствами со знаменитостями и достает приглашения на самые элитные вечеринки...

    Снималось в:США
    Киностудия:Home Box Office (HBO)
    Время просмотра:01:20:23
    Перевод текста:Любительское (одноголосное) -Lord32x
    Файл
    Кодек для видео:MPEG-4 AVC (MKV)
    Качество фильма:HDTVRip-AVC
    Информация о видео:AVC, 1024x576, 2026 Kbps
    Информация о звуке:Russian/English: AC3, 384 Kbps (6 ch)
    Субтитры:нет
    Семпл
    Скриншоты
    MediaInfo
    General
    Unique ID : 201866691030312062793390280806839346777 (0x97DE1C49EC1A4F3699E56A2F0DD3E659)
    Complete name : G:ДИСК 21.ФИЛЬМЫДавай знакомиться. Фильм Hello Ladies The Movie (2014)Hello.Ladies.The.Movie.2014.HDTVRip-AVC.mkv
    Format : Matroska
    Format version : Version 4/Version 2
    File size : 1.60 GiB
    Duration : 1h 20mn
    Overall bit rate : 2 851 Kbps
    Encoded date : UTC 2015-01-28 15:48:43
    Writing application : mkvmerge v7.5.0 (;Glass Culture;) 64bit built on Jan 4 2015 16:48:44
    Writing library : libebml v1.3.1 + libmatroska v1.4.2
    DURATION : 01:20:23.456000000
    NUMBER_OF_FRAMES : 150733
    NUMBER_OF_BYTES : 231525888
    _STATISTICS_WRITING_APP : mkvmerge v7.5.0 (;Glass Culture;) 64bit built on Jan 4 2015 16:48:44
    _STATISTICS_WRITING_DATE_UTC : 2015-01-28 15:48:43
    _STATISTICS_TAGS : BPS DURATION NUMBER_OF_FRAMES NUMBER_OF_BYTES
    Video
    ID : 1
    Format : AVC
    Format/Info : Advanced Video Codec
    Format profile : Main@L4.1
    Format settings, CABAC : Yes
    Format settings, ReFrames : 8 frames
    Codec ID : V_MPEG4/ISO/AVC
    Duration : 1h 20mn
    Bit rate : 2 026 Kbps
    Width : 1 024 pixels
    Height : 576 pixels
    Display aspect ratio : 16:9
    Frame rate mode : Constant
    Frame rate : 23.976 fps
    Color space : YUV
    Chroma subsampling : 4:2:0
    Bit depth : 8 bits
    Scan type : Progressive
    Bits/(Pixel*Frame) : 0.143
    Stream size : 1.14 GiB (71%)
    Language : English
    Default : Yes
    Forced : No
    Audio #1
    ID : 2
    Format : AC-3
    Format/Info : Audio Coding 3
    Mode extension : CM (complete main)
    Format settings, Endianness : Big
    Codec ID : A_AC3
    Duration : 1h 20mn
    Bit rate mode : Constant
    Bit rate : 384 Kbps
    Channel(s) : 6 channels
    Channel positions : Front: L C R, Side: L R, LFE
    Sampling rate : 48.0 KHz
    Bit depth : 16 bits
    Compression mode : Lossy
    Stream size : 221 MiB (13%)
    Language : Russian
    Default : Yes
    Forced : No
    Audio #2
    ID : 3
    Format : AC-3
    Format/Info : Audio Coding 3
    Mode extension : CM (complete main)
    Format settings, Endianness : Big
    Codec ID : A_AC3
    Duration : 1h 20mn
    Bit rate mode : Constant
    Bit rate : 384 Kbps
    Channel(s) : 6 channels
    Channel positions : Front: L C R, Side: L R, LFE
    Sampling rate : 48.0 KHz
    Bit depth : 16 bits
    Compression mode : Lossy
    Stream size : 221 MiB (13%)
    Language : English
    Default : No
    Forced : No

    Релиз подготовил:
    Размер скачиваемого торрента: 1.60 GB (1719056734 Bytes)

    Давай знакомиться. Фильм/Hello Ladies: The Movie (2014) HDTVRip-AVC | L1 скачать через торрент бесплатно
    загрузка...
    Рейтинг →
     (голосов: 1, оценка 5/5, голосовать можно 1 раз )

    Другие торренты по теме:

  • Давай знакомиться / Hello Ladies (2013) HDTVRip | Amedia
  • Давай знакомиться / Hello Ladies (2013) HDTVRip 720p от MediaClub


    • Комментарии (0):

      Информация

      Информация

        Посетители, находящиеся в группе Гости, не могут оставлять комментарии в данной новости.

        ↓ Меню



        ↓ Опрос

        А Вы добавили сайт в закладки?
        Да
        Не


        Top 10 за месяц (Фильмы)