.
Авторизация | Регистрация
Хочешь лучшие торренты? Добавь свой email!
Добавить
» » Все о Бенджаминах / All About the Benjamins (2002) WEB-DL 720p от HDClub | P скачать через торрент бесплатно




    Все о Бенджаминах / All About the Benjamins (2002) WEB-DL 720p от HDClub | P скачать через торрент бесплатно

    Опубликовал: Админ | Дата: 27-02-2015, 11:10 | Просмотров: 84


    Все о Бенджаминах
    | All About the Benjamins |

    Детально о кино
    Русское название:Все о Бенджаминах
    Русское название в мировом прокате:All About the Benjamins
    Создали в:2002
    Категория жанра:боевик, триллер, комедия, криминал
    Главный режиссер:Кевин Брэй

    Актеры
    Айс Кьюб, Майк Эппс, Томми Флэнеган, Кармен Чаплин, Ева Мендес, Валери Рэй Миллер, Энтони Джиаимо, Джефф Чейз, Роджер Гуэнвер Смит, Джино Сальвано, Тони Уорд, Доминик Чианиз мл., Энтони Майкл Холл, Энтони Короне, Боб Картер

    Сюжет фильма

    Айс Кьюб и Майк Эппс – движущая сила этого захватывающего комедийного боевика. Один – профессиональный охотник за головами, другой – никудышный мошенник. Бакум зарабатывает на жизнь, отлавливая и возвращая властям преступников, которые нарушают условия досрочного освобождения. Сев на хвост мелкому воришке Реджи, сбежавшему из-под опеки полиции, Бакум загоняет его в фотостудию, где сталкивается с крутыми бандитами, только что кинувшими известного мафиози с алмазами на 20 миллионов. Завязавшаяся перестрелка приводит к тому, что за расследование берется ФБР, а Бакума отстраняют, но охотник за головами не привык упускать свою добычу. Реджи тоже успел засветиться перед убийцами и тем самым оказывается меж двух огней, а вдобавок ко всему появляется и третья проблема – в кошельке, который он обронил в машине бандитов, остался лотерейный билет с выигрышем в 60 миллионов.

    Снималось в:США, Германия
    Киностудия:New Line Cinema, Cube Vision, Flipside Entertainment, Linovo Productions GmbH Co. KG
    Время просмотра:01:37:39
    Перевод текста:Профессиональный многоголосый
    Файл
    Кодек для видео:h.264
    Качество фильма:WEB-DL 720p
    Информация о видео:3976 Кбит/с, 1280x528, 23.976 кадр/с
    Информация о звуке:
    • №1: Английский (АС3, 6 ch, 448 Кбит/с)
    • №2: Русский (АС3, 6 ch, 384 Кбит/с) Профессиональный многоголосый R5
    Субтитры:Русские, английские
    MediaInfo

    Полное имя : All.About.the.Benjamins.2002.720p.WEB-DL.Eng.Rus.HDCLUB.mkv
    Формат : Matroska
    Версия формата : Version 2
    Размер файла : 3,35 Гбайт
    Продолжительность : 1 ч. 37 м.
    Общий поток : 4906 Кбит/сек
    Дата кодирования : UTC 2013-09-03 21:47:41
    Программа кодирования : mkvmerge v5.8.0 (;No Sleep/Pillow;) built on Sep 2 2012 15:37:04
    Библиотека кодирования : libebml v1.2.3 + libmatroska v1.3.0
    Видео
    Идентификатор : 1
    Формат : AVC
    Формат/Информация : Advanced Video Codec
    Профиль формата : Main@L3.1
    Параметр CABAC формата : Нет
    Параметр ReFrames формата : 2 кадра
    Идентификатор кодека : V_MPEG4/ISO/AVC
    Продолжительность : 1 ч. 37 м.
    Битрейт : 3976 Кбит/сек
    Ширина : 1280 пикселей
    Высота : 528 пикселей
    Соотношение сторон : 2,40:1
    Режим частоты кадров : Постоянный
    Частота кадров : 23,976 кадра/сек
    Цветовое пространство : YUV
    Субдискретизация насыщенности : 4:2:0
    Битовая глубина : 8 бит
    Тип развёртки : Прогрессивная
    Бит/(Пиксели*Кадры) : 0.245
    Размер потока : 2,71 Гбайт (81%)
    Язык : English
    Default : Да
    Forced : Нет
    Основные цвета : BT.709
    Характеристики трансфера : BT.709
    Коэффициенты матрицы : BT.709
    Аудио #1
    Идентификатор : 2
    Формат : AC-3
    Формат/Информация : Audio Coding 3
    Расширение режима : CM (complete main)
    Параметр Endianness формата : Big
    Идентификатор кодека : A_AC3
    Продолжительность : 1 ч. 37 м.
    Вид битрейта : Постоянный
    Битрейт : 448 Кбит/сек
    Каналы : 6 каналов
    Расположение каналов : Front: L C R, Side: L R, LFE
    Частота : 48,0 КГц
    Битовая глубина : 16 бит
    Метод сжатия : С потерями
    Размер потока : 313 Мбайт (9%)
    Заголовок : R1 AC3 5.1 448 kbps
    Язык : English
    Default : Нет
    Forced : Нет
    Аудио #2
    Идентификатор : 3
    Формат : AC-3
    Формат/Информация : Audio Coding 3
    Расширение режима : CM (complete main)
    Параметр Endianness формата : Big
    Идентификатор кодека : A_AC3
    Продолжительность : 1 ч. 37 м.
    Вид битрейта : Постоянный
    Битрейт : 384 Кбит/сек
    Каналы : 6 каналов
    Расположение каналов : Front: L C R, Side: L R, LFE
    Частота : 48,0 КГц
    Битовая глубина : 16 бит
    Метод сжатия : С потерями
    Размер потока : 268 Мбайт (8%)
    Заголовок : MVO R5 AC3 5.1 384 kbps
    Язык : Russian
    Default : Нет
    Forced : Нет
    Текст #1
    Идентификатор : 4
    Формат : UTF-8
    Идентификатор кодека : S_TEXT/UTF8
    Идентификатор кодека/Информация : UTF-8 Plain Text
    Язык : English
    Default : Нет
    Forced : Нет
    Текст #2
    Идентификатор : 5
    Формат : UTF-8
    Идентификатор кодека : S_TEXT/UTF8
    Идентификатор кодека/Информация : UTF-8 Plain Text
    Язык : Russian
    Default : Нет
    Forced : Нет
    Меню
    00:00:00.000 : en:You;re Going to Jail
    00:03:58.000 : en:Main Title
    00:05:39.000 : en:Money to Be Made
    00:09:28.000 : en:The Preferred Shopper
    00:12:38.000 : en:Hunting Reggie
    00:15:30.000 : en:Mr. Barcley;s Photo Session
    00:18:28.000 : en:Twenty Fake Million
    00:23:26.000 : en:Money for Nothing
    00:25:52.000 : en:Lucky Numbers
    00:30:18.000 : en:Blinded by the Light
    00:32:40.000 : en:Bucum;s Bounty
    00:35:11.000 : en:An Unreal Partnership
    00:39:00.000 : en:Playing Dead
    00:42:39.000 : en:The Interrogation
    00:46:13.000 : en:Boat Buyer
    00:49:21.000 : en:The Wallet or the Diamonds?
    00:53:36.000 : en:Okay, We;re Partners
    00:57:42.000 : en:Barcley;s Hidden Treasures
    01:03:40.000 : en:Fishing for Diamonds
    01:06:08.000 : en:Getting Back Gina
    01:09:11.000 : en:The Set-up
    01:10:20.000 : en:The Exchange
    01:15:31.000 : en:Chase First, Talk Later
    01:19:47.000 : en:Getting Their Cuts
    01:23:58.000 : en:Girlie Action
    01:26:19.000 : en:Speedboat Justice
    01:30:10.000 : en:His Ship Coming In
    01:33:30.000 : en:End Credits
    Скриншоты



    Релиз подготовил:
    Залил: 0ptimus
    Размер скачиваемого торрента: 3.35 GB (3593003033 Bytes)

    Все о Бенджаминах/All About the Benjamins (2002) WEB-DL 720p от HDClub | P скачать через торрент бесплатно
    загрузка...
    Рейтинг →
     (голосов: 1, оценка 4/5, голосовать можно 1 раз )

    Другие торренты по теме:

  • Абрамова О. В., Пшеничнер Б. Г. - Космос. Все о звёздах, планетах, космических странниках (2014) PDF
  • Все о зле / All About Evil (2010) HDRip | НТВ
  • Все о зле / All About Evil (2010) SATRip от ClubTorrent | P 2
  • В наше время. Людмила Сенчина. Все о жизни Золушки (2014) HDTVRip 720p от waPBX скачать через торрент бесплатно
  • Все о Лили Чоу-Чоу / Riri Shushu no subete (2001) HDRip от RG Orient Extreme | P2
  • Все о Бенджаминах / All About the Benjamins (2002) WEB-DLRip-AVC от 0ptimus | P
  • Все о Локальной сети (2011) PDF
  • Все о ремонте. Современная иллюстрированная энциклопедия скачать через торрент бесплатно


    • Комментарии (0):

      Информация

      Информация

        Посетители, находящиеся в группе Гости, не могут оставлять комментарии в данной новости.

        ↓ Меню



        ↓ Опрос

        А Вы добавили сайт в закладки?
        Да
        Не


        Top 10 за месяц (Фильмы)