.
Авторизация | Регистрация
Хочешь лучшие торренты? Добавь свой email!
Добавить
» » Как поссорился Иван Иванович с Иваном Никифоровичем (1959) DVDRip от New-Team скачать торрент бесплатно




    Как поссорился Иван Иванович с Иваном Никифоровичем (1959) DVDRip от New-Team скачать торрент бесплатно

    Опубликовал: Админ | Дата: 27-02-2015, 11:10 | Просмотров: 276


    Снималось в: СССР
    Создали в: Одесская киностудия
    Категория жанра: комедия
    Создали в: 1959
    Время просмотра: 1:05:18
    Перевод текста:Не требуется
    Субтитры подготовлены: нет
    Оригинальная аудиодорожка: русский
    Главный режиссер: Владимир Карасев

    Актеры

    Николай Волков, Г. Лаврик, Иван Маркевич, Георгий Светлани, Глеб Глебов, Н. Смирнов, Бронислава Михалевич, София Карамаш, Валентина Кравченко, Георгий Вицин...
    Описание:
    Как поссорились Иван Иванович с Иваном Никифоровичем? Зашел Иван Иванович к своему закадычному другу Ивану Никифоровичу, желая выпросить понравившееся ружье. Да не сложилось. И в пылу спора Иван Никифорович возьми да и назови Ивана Ивановича гусаком. А тот возьми да и разгневайся. А что было дальше… Ой, что было!..



    Источник:DVD9 R5
    Качество фильма видео:DVDRip
    Тип видео видео: AVI
    Виде: 704x512 (1,375:1), 25 fps, XviD ~ 1937 kbps avg, 0.215 bit/pixel
    Информация о звуке: 48 kHz, Dolby Digital AC3 5.1, 448 kbps
    Раздача от:
    MediaInfo

    Общее
    Полное имя : Kak.possorilsya.Ivan.Ivanovich.s.Ivanom.Nikiforovichem.1959.DVDRip_New-team_by_AVP_Studio.avi
    Формат : AVI
    Формат/Информация : Audio Video Interleave
    Размер файла : 1,09 Гбайт
    Продолжительность : 1 ч. 5 м.
    Общий поток : 2394 Кбит/сек
    Программа кодирования : VirtualDubModRus 1.5.10.2 (build 2542/release)
    Библиотека кодирования : VirtualDubMod build 2542/release
    Видео
    Идентификатор : 0
    Формат : MPEG-4 Visual
    Профиль формата : Advanced Simple@L5
    Параметр BVOP формата : 1
    Параметр QPel формата : Нет
    Параметр GMC формата : Без точки перехода
    Параметр матрицы формата : Выборочная
    Идентификатор кодека : XVID
    Идентификатор кодека/Подсказка : XviD
    Продолжительность : 1 ч. 5 м.
    Битрейт : 1937 Кбит/сек
    Ширина : 704 пикселя
    Высота : 512 пикселей
    Соотношение сторон : 1,375
    Частота кадров : 25,000 кадров/сек
    Цветовое пространство : YUV
    Субдискретизация насыщенности : 4:2:0
    Битовая глубина : 8 бит
    Тип развёртки : Прогрессивная
    Метод сжатия : С потерями
    Бит/(Пиксели*Кадры) : 0.215
    Размер потока : 905 Мбайт (81%)
    Библиотека кодирования : XviD 73
    Аудио
    Идентификатор : 1
    Формат : AC-3
    Формат/Информация : Audio Coding 3
    Расширение режима : CM (complete main)
    Параметр Endianness формата : Big
    Идентификатор кодека : 2000
    Продолжительность : 1 ч. 5 м.
    Вид битрейта : Постоянный
    Битрейт : 448 Кбит/сек
    Каналы : 6 каналов
    Расположение каналов : Front: L C R, Side: L R, LFE
    Частота : 48,0 КГц
    Битовая глубина : 16 бит
    Метод сжатия : С потерями
    Задержка видео : 240 мс.
    Размер потока : 209 Мбайт (19%)
    Выравнивание : Разделение по промежуткам
    Продолжительность промежутка : 40 мс. (1,00 видеокадр)
    Время предзагрузки промежутка : 500 мс

    Скриншоты



    Залил: AVPStudio
    Размер скачиваемого торрента: 1.09 GB (1172948992 Bytes)

    Как поссорился Иван Иванович с Иваном Никифоровичем (1959) DVDRip от New-Team торрент скачать бесплатно
    загрузка...
    Рейтинг →
     (голосов: 1, оценка 5/5, голосовать можно 1 раз )

    Другие торренты по теме:

  • Как вернуть мужа за 30 дней (2017) WEB-DLRip от GeneralFilm
  • Как / Оно / Есть: Масло (2014) WEBRip 720p
  • Как знаю, как помню, как умею скачать через торрент бесплатно
  • Занин С. - Как преодолеть лень, или Как научиться делать то, что нужно делать (2012) PDF
  • Будьте как дома / Как дома / Comme Chez Soi (2011) HDTVRip от Rulya74 | P2
  • Как я теперь люблю / Как я теперь живу / How I Live Now (2013) WEB-DLRip-AVC | L1 скачать через торрент бесплатно
  • Как я теперь люблю / Как я теперь живу / How I Live Now (2013) BDRip-AVC от potroks | А.Матвеев скачать через торрент бесплатно
  • Как я теперь люблю / Как я теперь живу / How I Live Now (2013) BDRip-AVC от R.G.TorrBy | А. Матвеев


    • Комментарии (0):

      Информация

      Информация

        Посетители, находящиеся в группе Гости, не могут оставлять комментарии в данной новости.

        ↓ Меню



        ↓ Опрос

        А Вы добавили сайт в закладки?
        Да
        Не


        Top 10 за месяц (Фильмы)