.
Авторизация | Регистрация
Хочешь лучшие торренты? Добавь свой email!
Добавить
» » Свинарка и пастух (1941) SATRip от New-Team скачать торрент бесплатно




    Свинарка и пастух (1941) SATRip от New-Team скачать торрент бесплатно

    Опубликовал: Админ | Дата: 27-02-2015, 11:10 | Просмотров: 214


    Снималось в: СССР
    Создали в: Мосфильм
    Категория жанра: мюзикл, мелодрама
    Создали в: 1941
    Время просмотра: 01:22:32
    Перевод текста:Не требуется
    Субтитры подготовлены: нет
    Оригинальная аудиодорожка: русский
    Главный режиссер: Иван Пырьев

    Актеры

    Марина Ладынина, Владимир Зельдин, Николай Крючков, Никита Китаев, Е.Счастливцева, Григорий Алексеев, Татьяна Барышева, Александра Данилова, Осип Абдулов, Владимир Уральский, Георгий Светлани, Татьяна Говоркова, Ариадна Лысак, Пётр Глебов...
    Описание:
    Скромную вологодскую свинарку Глашу Новикову посылают в Москву на Всесоюзную сельскохозяйственную выставку. Здесь она встречается с дагестанским пастухом Мусаибом Гатуевым. Расставаясь, Глаша и Мусаиб обещают писать друг другу и встретиться на выставке через год. Но на их пути встает конюх Кузьма, тоже влюблённый в Глашу.



    Источник:DVB
    Качество фильма видео:SATRip
    Тип видео видео: AVI
    Виде: 688x512 (4:3), 25 fps, XviD ~ 2323 kbps avg, 0.264 bit/pixel
    Информация о звуке: 48 kHz, Dolby Digital AC3 2.0, 192 kbps
    Раздача от:
    MediaInfo

    Общее
    Полное имя : Svinarka.i.pastuh.1941.SATRip_New-team_by_AVP_Studio.avi
    Формат : AVI
    Формат/Информация : Audio Video Interleave
    Размер файла : 1,46 Гбайт
    Продолжительность : 1 ч. 22 м.
    Общий поток : 2525 Кбит/сек
    Программа кодирования : VirtualDubModRus 1.5.10.2 (build 2542/release)
    Библиотека кодирования : VirtualDubMod build 2542/release
    Видео
    Идентификатор : 0
    Формат : MPEG-4 Visual
    Профиль формата : Advanced Simple@L5
    Параметр BVOP формата : 1
    Параметр QPel формата : Нет
    Параметр GMC формата : Без точки перехода
    Параметр матрицы формата : Выборочная
    Идентификатор кодека : XVID
    Идентификатор кодека/Подсказка : XviD
    Продолжительность : 1 ч. 22 м.
    Битрейт : 2323 Кбит/сек
    Ширина : 688 пикселей
    Высота : 512 пикселей
    Соотношение сторон : 4:3
    Частота кадров : 25,000 кадров/сек
    Цветовое пространство : YUV
    Субдискретизация насыщенности : 4:2:0
    Битовая глубина : 8 бит
    Тип развёртки : Прогрессивная
    Метод сжатия : С потерями
    Бит/(Пиксели*Кадры) : 0.264
    Размер потока : 1,34 Гбайт (92%)
    Библиотека кодирования : XviD 73
    Аудио
    Идентификатор : 1
    Формат : AC-3
    Формат/Информация : Audio Coding 3
    Расширение режима : CM (complete main)
    Параметр Endianness формата : Big
    Идентификатор кодека : 2000
    Продолжительность : 1 ч. 22 м.
    Вид битрейта : Постоянный
    Битрейт : 192 Кбит/сек
    Каналы : 2 канала
    Расположение каналов : Front: L R
    Частота : 48,0 КГц
    Битовая глубина : 16 бит
    Метод сжатия : С потерями
    Размер потока : 113 Мбайт (8%)
    Выравнивание : Разделение по промежуткам
    Продолжительность промежутка : 40 мс. (1,00 видеокадр)
    Время предзагрузки промежутка : 500 мс

    Скриншоты



    Залил: AVPStudio
    Размер скачиваемого торрента: 1.46 GB (1563160576 Bytes)

    Свинарка и пастух (1941) SATRip от New-Team торрент скачать бесплатно
    загрузка...
    Рейтинг →
     (голосов: 1, оценка 5/5, голосовать можно 1 раз )

    Другие торренты по теме:

  • Свинарка и пастух / 1941 / РУ / DVD-5
  • Свинарка и пастух / 1941 / РУ / DVDRip
  • Свинарка и пастух (Полная оригинальная версия) / 1941 / РУ / TVRip


    • Комментарии (0):

      Информация

      Информация

        Посетители, находящиеся в группе Гости, не могут оставлять комментарии в данной новости.

        ↓ Меню



        ↓ Опрос

        А Вы добавили сайт в закладки?
        Да
        Не


        Top 10 за месяц (Фильмы)