.
Авторизация | Регистрация
Хочешь лучшие торренты? Добавь свой email!
Добавить
» » Атлантида / Atlantis (2013) HDRip от Generalfilm | КПК | ТВ3 скачать торрент бесплатно




    Атлантида / Atlantis (2013) HDRip от Generalfilm | КПК | ТВ3 скачать торрент бесплатно

    Опубликовал: Админ | Дата: 27-02-2015, 11:10 | Просмотров: 161


    Детально о кино
    Русское название:Атлантида
    Русское название в мировом прокате:Atlantis
    Создали в:2013
    Категория жанра:Приключения, фэнтези, драма
    Главный режиссер:Джастин Молотников

    Актеры
    Джек Доннелли, Марк Эдди, Роберт Эммс, Аийша Харт, Джемайма Рупер, Александр Сиддиг, Сара Пэриш, Оливер Уолкер, Джульет Стивенсон, Ханна Артертон, Джордж Саввидес, Марк Льюис Джонс, Кен Бонс, Карл Джонсон, Шелли Кинг, Джо Диксон, Фрэнсис Томелти, Наоми Эверсон, Фэй Брукс, Стефани Лэнгон, Рон Донаки, Гарри Дикман, Ричард Диллэйн, Тристан Геммилл, Киаран Гриффитс

    Сюжет фильма

    Атлантида — таинственный древний город, в котором дворцы так огромны, что ходят предания, будто их строили сами великаны. Мир населяют змееволосые богини и царствует чудовище Минотавр. Именно в это странное, манящее королевство попадает юный Ясон, так и начинается его захватывающее путешествие, основанное на множестве греческих мифов и легенд, переписанных для нового поколения.

    Список серий:
    01. Критский бык
    02. Как девушку не назови...
    03. Парень должен умереть
    04. Ирония судьбы
    05. Ложь во спасение
    06. Песня Сирен
    07. Правила помолвки и боя
    08. Фурии
    09. Ящик Пандоры
    10. Цена надежды
    11. Муки голода
    12. Отмеченный богами, часть 1
    13. Отмеченный богами, часть 2

    Снималось в:Великобритания
    Киностудия:Urban Myth Films, BBC Cymru Wales, BBC America
    Время просмотра:13 x ~ 00:43:00
    Перевод текста:Профессиональный (многоголосый, закадровый) ТВ3
    Файл
    Тип видео:MP4
    Качество фильма:HDRip | КПК
    Информация о видео:MPEG-4 AVC (x264), 640x360, ~500 kbps, 25.000 fps
    Информация о звуке:AAC LC, 48.0 KHz, 2 ch, 128 Kbps
    Субтитры:Нет
    Семпл
    Скриншоты

    MI
    Complete name : E:KinoAtlantida.AVC.KPK.GeneralfilmAtlantida.S01.2013.AVC.HDRip.KPK.TB3.GeneralfilmAtlantida.s01e03.2013.AVC.HDRip.KPK.TB3.Generalfilm.mp4
    Format : MPEG-4
    Format profile : Base Media
    Codec ID : isom
    File size : 199 MiB
    Duration : 43mn 56s
    Overall bit rate mode : Variable
    Overall bit rate : 632 Kbps
    Encoded date : UTC 2014-12-24 14:33:08
    Tagged date : UTC 2014-12-24 14:33:08
    Video
    ID : 1
    Format : AVC
    Format/Info : Advanced Video Codec
    Format profile : High@L4.1
    Format settings, CABAC : Yes
    Format settings, ReFrames : 8 frames
    Codec ID : avc1
    Codec ID/Info : Advanced Video Coding
    Duration : 43mn 56s
    Bit rate : 500 Kbps
    Maximum bit rate : 2 508 Kbps
    Width : 640 pixels
    Height : 360 pixels
    Display aspect ratio : 16:9
    Frame rate mode : Constant
    Frame rate : 25.000 fps
    Color space : YUV
    Chroma subsampling : 4:2:0
    Bit depth : 8 bits
    Scan type : Progressive
    Bits/(Pixel*Frame) : 0.087
    Stream size : 157 MiB (79%)
    Writing library : x264 core 130 r2273 b3065e6
    Encoding settings : cabac=1/ref=8/deblock=1:-1:-1/analyse=0x3:0x133/me=umh/subme=10/psy=1/psy_rd=1.00:0.00/mixed_ref=1/me_range=24/chroma_me=1/trellis=2/8x8dct=1/cqm=0/deadzone=21,11/fast_pskip=1/chroma_qp_offset=-2/threads=3/lookahead_threads=1/sliced_threads=0/nr=0/decimate=1/interlaced=0/bluray_compat=0/constrained_intra=0/bframes=8/b_pyramid=2/b_adapt=2/b_bias=0/direct=3/weightb=1/open_gop=0/weightp=2/keyint=250/keyint_min=126/scenecut=40/intra_refresh=0/rc_lookahead=40/rc=2pass/mbtree=1/bitrate=500/ratetol=1.0/qcomp=0.60/qpmin=0/qpmax=69/qpstep=4/cplxblur=20.0/qblur=0.5/ip_ratio=1.40/aq=1:1.00
    Encoded date : UTC 2014-12-24 14:33:08
    Tagged date : UTC 2014-12-24 14:34:31
    Audio
    ID : 2
    Format : AAC
    Format/Info : Advanced Audio Codec
    Format profile : LC
    Codec ID : 40
    Duration : 43mn 56s
    Bit rate mode : Variable
    Bit rate : 128 Kbps
    Maximum bit rate : 151 Kbps
    Channel count : 2 channels
    Channel positions : Front: L R
    Sampling rate : 48.0 KHz
    Compression mode : Lossy
    Delay relative to video : 120ms
    Stream size : 40.2 MiB (20%)
    Encoded date : UTC 2014-12-24 14:34:18
    Tagged date : UTC 2014-12-24 14:34:31

    Релиз подготовил:
    Залил: toys_watch
    Размер скачиваемого торрента: 2.49 GB (2677331056 Bytes)

    Атлантида/Atlantis (2013) HDRip от Generalfilm | КПК | ТВ3 торрент скачать бесплатно
    загрузка...
    Рейтинг →
     (голосов: 1, оценка 4/5, голосовать можно 1 раз )

    Другие торренты по теме:

  • Атлантида: Затерянный мир / Atlantis: The Lost Empire (2001) HDTVRip
  • OST - Атлантида: Затерянный мир / Atlantis: The Lost Empire (2001) MP3
  • Теория заговора: Черноморская Атлантида: По следам троглодитов (2012) TVRip
  • Теория заговора: Черноморская Атлантида: Дело о крымских пирамидах (2012) TVRip
  • Теория заговора: Черноморская Атлантида: Потерянные технологии (2012) TVRip
  • Теория заговора: Черноморская Атлантида: Города нимф (2012) TVRip
  • Теория заговора: Черноморская Атлантида: Наследие Богов (2012) TVRip
  • Теория заговора: Черноморская Атлантида: Царство Аида (2012) TVRip


    • Комментарии (0):

      Информация

      Информация

        Посетители, находящиеся в группе Гости, не могут оставлять комментарии в данной новости.

        ↓ Меню



        ↓ Опрос

        А Вы добавили сайт в закладки?
        Да
        Не


        Top 10 за месяц (Фильмы)