.
Авторизация | Регистрация
Хочешь лучшие торренты? Добавь свой email!
Добавить
» » Заповедник / Preservation (2014) WEB-DLRip-AVC | L1 скачать через торрент бесплатно




    Заповедник / Preservation (2014) WEB-DLRip-AVC | L1 скачать через торрент бесплатно

    Опубликовал: Админ | Дата: 27-02-2015, 11:10 | Просмотров: 168


    Детально о кино
    Русское название: Заповедник
    Русское название в мировом прокате: Preservation
    Создали в: 2014
    Категория жанра: Ужасы, триллер
    Главный режиссер: Кристофер Денэм

    Актеры
    Пабло Шрайбер, Аарон Стэтон, Ренн Шмидт, Ник Сашо, Майкл Чакон

    Сюжет фильма
    Два брата, Шон и Майк и жена Майка, отправляются поохотится чтоб отвлечься от домашних проблем. Не обращая внимания на запрещающие знаки, они проникают в закрытый заповедник и их проблемы только начинаются.


    Снималось в: США
    Время просмотра: 01:28:15
    Тип перевода:Любительское (одноголосое) xixidok
    Файл
    Качество фильма: WEB-DLRip-AVC
    Информация о видео:AVC, 1024x428 (2.35:1), 23.976 fps, 1 977 Kbps (0.188 bit/pixel)
    Информация о звуке:AC-3, 48.0 KHz, 6 ch, 384 Kbps, CBR (Russian)
    MI
    Формат : Matroska
    Версия формата : Version 2
    Размер файла : 1,46 Гбайт
    Продолжительность : 1 ч. 28 м.
    Общий поток : 2362 Кбит/сек
    Название фильма : FAGOT100
    Дата кодирования : UTC 2015-01-17 14:56:27
    Программа кодирования : mkvmerge v5.3.0 (;I could have danced;) built on Feb 9 2012 10:38:07
    Библиотека кодирования : libebml v1.2.3 + libmatroska v1.3.0
    Attachment : Yes
    Видео
    Идентификатор : 1
    Формат : AVC
    Формат/Информация : Advanced Video Codec
    Профиль формата : High@L4.1
    Параметр CABAC формата : Да
    Параметр ReFrames формата : 5 кадров
    Идентификатор кодека : V_MPEG4/ISO/AVC
    Продолжительность : 1 ч. 28 м.
    Битрейт : 1977 Кбит/сек
    Ширина : 1024 пикселя
    Высота : 428 пикселей
    Соотношение сторон : 2,40:1
    Режим частоты кадров : Постоянный
    Частота кадров : 23,976 кадра/сек
    Цветовое пространство : YUV
    Субдискретизация насыщенности : 4:2:0
    Битовая глубина : 8 бит
    Тип развёртки : Прогрессивная
    Бит/(Пиксели*Кадры) : 0.188
    Размер потока : 1,19 Гбайт (82%)
    Библиотека кодирования : x264 core 142 r2431 ac76440
    Настройки программы : cabac=1/ref=5/deblock=1:-3:-3/analyse=0x3:0x133/me=umh/subme=10/psy=1/psy_rd=1.00:0.05/mixed_ref=1/me_range=24/chroma_me=1/trellis=2/8x8dct=1/cqm=0/deadzone=21,11/fast_pskip=1/chroma_qp_offset=-3/threads=12/lookahead_threads=2/sliced_threads=0/nr=0/decimate=1/interlaced=0/bluray_compat=0/constrained_intra=0/bframes=8/b_pyramid=2/b_adapt=2/b_bias=0/direct=3/weightb=1/open_gop=0/weightp=2/keyint=240/keyint_min=22/scenecut=40/intra_refresh=0/rc=2pass/mbtree=0/bitrate=1977/ratetol=1.0/qcomp=0.60/qpmin=0/qpmax=69/qpstep=4/cplxblur=20.0/qblur=0.5/ip_ratio=1.40/pb_ratio=1.30/aq=1:1.00
    Язык : English
    Default : Да
    Forced : Нет
    Аудио
    Идентификатор : 2
    Формат : AC-3
    Формат/Информация : Audio Coding 3
    Расширение режима : CM (complete main)
    Параметр Endianness формата : Big
    Идентификатор кодека : A_AC3
    Продолжительность : 1 ч. 28 м.
    Вид битрейта : Постоянный
    Битрейт : 384 Кбит/сек
    Каналы : 6 каналов
    Расположение каналов : Front: L C R, Side: L R, LFE
    Частота : 48,0 КГц
    Битовая глубина : 16 бит
    Метод сжатия : С потерями
    Размер потока : 242 Мбайт (16%)
    Заголовок : Xixidok
    Язык : Russian
    Default : Нет
    Forced : Нет
    Меню
    00:00:00.000 : en:Opening
    00:05:21.000 : en:Gas Station
    00:11:18.000 : en:Deer Blind
    00:18:46.000 : en:Campfire
    00:28:04.000 : en:Morning
    00:36:16.000 : en:Dog Toy
    00:42:56.000 : en:Ranger Station
    00:55:40.000 : en:Cliff;s Edge
    01:07:02.000 : en:Flares
    01:14:28.000 : en:Drag
    01:20:16.000 : en:Swings
    Скриншоты

    Размер скачиваемого торрента: 1.46 GB (1563304354 Bytes)

    Заповедник/Preservation (2014) WEB-DLRip-AVC | L1 скачать через торрент бесплатно
    загрузка...
    Рейтинг →
     (голосов: 1, оценка 5/5, голосовать можно 1 раз )

    Другие торренты по теме:

  • Заповедник / Preservation (2014) WEB-DLRip | L 1
  • Заповедник / Preservation (2014) BDRip 1080p от NovaLan


    • Комментарии (0):

      Информация

      Информация

        Посетители, находящиеся в группе Гости, не могут оставлять комментарии в данной новости.

        ↓ Меню



        ↓ Опрос

        А Вы добавили сайт в закладки?
        Да
        Не


        Top 10 за месяц (Фильмы)