.
Авторизация | Регистрация
Хочешь лучшие торренты? Добавь свой email!
Добавить
» » Таксист / Taxi Driver (1976) BDRip 1080p | P, P2, A скачать через торрент бесплатно




    Таксист / Taxi Driver (1976) BDRip 1080p | P, P2, A скачать через торрент бесплатно

    Опубликовал: Админ | Дата: 27-02-2015, 11:10 | Просмотров: 156



    Детально о кино
    Русское название: Таксист
    Русское название в мировом прокате: Taxi Driver
    Создали в: 1976
    Категория жанра:Триллер, драма, криминал
    Главный режиссер: Мартин Скорсезе

    Актеры
    Роберт Де Ниро, Джоди Фостер, Питер Бойл, Сибилл Шепард, Харви Кейтель, Альберт Брукс, Дайэнн Эбботт, Фрэнк Эду, Виктор Арго, Джино Ардито, Гарт Эйвери, Гарри Кон, Коппер Каннингэм, Бренда Диксон, Гарри Фишлер, Нат Грант, Леонард Харрис, Ричард Хиггс, Бо Кайсер, Виктор Маньотта, Боб Марофф, Норман Мэтлок, Билл Минкин, Мюррей Мостон, Гарри Нортап


    Сюжет фильма
    Тусклый свет слепых фонарей, скелеты фабричных труб, задыхающихся в собственном дыму. Вавилонские башни небоскребов, все это - ад Нового времени, Нью-Йорк. Ветеран вьетнамской войны Трэйвис Бикл ведет свое одинокое такси по ночным улицам бесконечного города, и перед ним разворачивается мрачная панорама человеческих грехов. Как ветхозаветный пророк, он надеется, что однажды небеса пошлют на землю спасительный дождь, который очистит Нью-Йорк от вековой грязи. А когда умирает надежда, остается только ненависть. Огненный ливень обрушится на головы грешников. Таксист позаботится об этом.



    Снималось в: США/Columbia Pictures Corporation, Italo/Judeo Productions, Bill/Phillips
    Время просмотра: 01:53:48
    Перевод текста:Профессиональный(многоголосый, закадровый), Профессиональный(двухголосый, закадровый), Авторский(одноголосый, закадровый)

    Файл
    Качество фильма:BDRip 1080p
    Тип видео: MKV
    Информация о видео: MPEG4/AVC, 14.0 Мбит/сек, 1920х1080 (16:9), 23.976 кадра/сек
    Информация о звуке 1: AC3, 6 каналов, 448 Кбит/сек |Русский MVO - Киномания
    Информация о звуке 2: AC3, 2 канала, 192 Кбит/сек) |Русский MVO - R5
    Информация о звуке 3: AC3, 6 каналов, 448 Кбит/сек |Украинский MVO - Так Треба Продакшн | Інтер
    Информация о звуке 4: AC3, 6 каналов, 640 Кбит/сек |Русский P2 - Blu-ray CEE
    Информация о звуке 5: AC3, 2 канала, 192 Кбит/сек |Русский P2 - ОРТ
    Информация о звуке 6: AC3, 2 канала, 192 Кбит/сек |Русский P2 - НТВ
    Информация о звуке 7: AC3, 2 канала, 192 Кбит/сек |Русский A - А.Михалев
    Информация о звуке 8: AC3, 6 каналов, 448 Кбит/сек |Русский A - Ю.Живов
    Информация о звуке 9: AC3, 2 канала, 192 Кбит/сек |Русский A - К.Поздняков | не нормативная лексика
    Информация о звуке 10: AC3, 6 каналов, 448 Кбит/сек |Русский A - Г.Либергал
    Информация о звуке 11: DTS-HD MA, 6 каналов, 2154/1509 Кбит/сек |Английский
    Субтитры: Русские (Forced, Full - Киномания, Full - Поздняков | не нормативная лексика), английские (Full, SDH)
    Навигация по главам: Есть

    MediaInfo:
    Общее
    Уникальный идентификатор : 212244410803505881275723911753819574838 (0x9FACC9608D88708B9DA32A985D315236)
    Полное имя : Taxi Driver. (1976) BDRip 1080p.mkv
    Формат : Matroska
    Версия формата : Version 2
    Размер файла : 15,6 Гбайт
    Продолжительность : 1 ч. 53 м.
    Режим общего битрейта : Переменный
    Общий поток : 19,6 Мбит/сек
    Название фильма : Taxi Driver. 1976
    Дата кодирования : UTC 2015-01-13 19:23:38
    Программа кодирования : mkvmerge v5.8.0 (;No Sleep/Pillow;) built on Sep 2 2012 15:37:04
    Библиотека кодирования : libebml v1.2.3 + libmatroska v1.3.0

    Видео
    Идентификатор : 1
    Формат : AVC
    Формат/Информация : Advanced Video Codec
    Профиль формата : High@L4.1
    Параметр CABAC формата : Да
    Параметр ReFrames формата : 4 кадра
    Идентификатор кодека : V_MPEG4/ISO/AVC
    Продолжительность : 1 ч. 53 м.
    Вид битрейта : Переменный
    Номинальный битрейт : 14,0 Мбит/сек
    Максимальный битрейт : 30,0 Мбит/сек
    Ширина : 1920 пикселей
    Высота : 1080 пикселей
    Соотношение сторон : 16:9
    Режим частоты кадров : Постоянный
    Частота кадров : 23,976 кадра/сек
    Цветовое пространство : YUV
    Субдискретизация насыщенности : 4:2:0
    Битовая глубина : 8 бит
    Тип развёртки : Прогрессивная
    Бит/(Пиксели*Кадры) : 0.282
    Заголовок : Grym
    Библиотека кодирования : x264 core 133 r2334 a3ac64b
    Настройки программы : cabac=1/ref=4/deblock=1:0:0/analyse=0x3:0x133/me=umh/subme=9/psy=1/psy_rd=1.00:0.00/mixed_ref=1/me_range=16/chroma_me=1/trellis=2/8x8dct=1/cqm=0/deadzone=21,11/fast_pskip=1/chroma_qp_offset=-2/threads=12/lookahead_threads=1/sliced_threads=0/slices=4/nr=0/decimate=1/interlaced=0/bluray_compat=1/constrained_intra=0/bframes=3/b_pyramid=0/b_adapt=1/b_bias=0/direct=3/weightb=1/open_gop=0/weightp=1/keyint=24/keyint_min=1/scenecut=40/intra_refresh=0/rc_lookahead=24/rc=2pass/mbtree=1/bitrate=14020/ratetol=1.0/qcomp=0.60/qpmin=0/qpmax=69/qpstep=4/cplxblur=20.0/qblur=0.5/vbv_maxrate=30000/vbv_bufsize=30000/nal_hrd=vbr/ip_ratio=1.10/aq=1:1.00
    Язык : English
    Default : Да
    Forced : Нет

    Аудио #1
    Идентификатор : 2
    Формат : AC-3
    Формат/Информация : Audio Coding 3
    Расширение режима : CM (complete main)
    Параметр Endianness формата : Big
    Идентификатор кодека : A_AC3
    Продолжительность : 1 ч. 53 м.
    Вид битрейта : Постоянный
    Битрейт : 448 Кбит/сек
    Каналы : 6 каналов
    Расположение каналов : Front: L C R, Side: L R, LFE
    Частота : 48,0 КГц
    Битовая глубина : 16 бит
    Метод сжатия : С потерями
    Размер потока : 365 Мбайт (2%)
    Заголовок : MVO | Киномания
    Язык : Russian
    Default : Да
    Forced : Нет

    Аудио #2
    Идентификатор : 3
    Формат : AC-3
    Формат/Информация : Audio Coding 3
    Расширение режима : CM (complete main)
    Параметр Endianness формата : Big
    Идентификатор кодека : A_AC3
    Продолжительность : 1 ч. 53 м.
    Вид битрейта : Постоянный
    Битрейт : 192 Кбит/сек
    Каналы : 2 канала
    Расположение каналов : Front: L R
    Частота : 48,0 КГц
    Битовая глубина : 16 бит
    Метод сжатия : С потерями
    Размер потока : 156 Мбайт (1%)
    Заголовок : MVO | License | R5
    Язык : Russian
    Default : Нет
    Forced : Нет

    Аудио #3
    Идентификатор : 4
    Формат : AC-3
    Формат/Информация : Audio Coding 3
    Расширение режима : CM (complete main)
    Параметр Endianness формата : Big
    Идентификатор кодека : A_AC3
    Продолжительность : 1 ч. 53 м.
    Вид битрейта : Постоянный
    Битрейт : 448 Кбит/сек
    Каналы : 6 каналов
    Расположение каналов : Front: L C R, Side: L R, LFE
    Частота : 48,0 КГц
    Битовая глубина : 16 бит
    Метод сжатия : С потерями
    Размер потока : 365 Мбайт (2%)
    Заголовок : MVO | Так Треба Продакшн | Інтер
    Язык : Ukrainian
    Default : Нет
    Forced : Нет

    Аудио #4
    Идентификатор : 5
    Формат : AC-3
    Формат/Информация : Audio Coding 3
    Расширение режима : CM (complete main)
    Параметр Endianness формата : Big
    Идентификатор кодека : A_AC3
    Продолжительность : 1 ч. 53 м.
    Вид битрейта : Постоянный
    Битрейт : 640 Кбит/сек
    Каналы : 6 каналов
    Расположение каналов : Front: L C R, Side: L R, LFE
    Частота : 48,0 КГц
    Битовая глубина : 16 бит
    Метод сжатия : С потерями
    Размер потока : 521 Мбайт (3%)
    Заголовок : P2 | Blu-ray CEE
    Язык : Russian
    Default : Нет
    Forced : Нет

    Аудио #5
    Идентификатор : 6
    Формат : AC-3
    Формат/Информация : Audio Coding 3
    Расширение режима : CM (complete main)
    Параметр Endianness формата : Big
    Идентификатор кодека : A_AC3
    Продолжительность : 1 ч. 53 м.
    Вид битрейта : Постоянный
    Битрейт : 192 Кбит/сек
    Каналы : 2 канала
    Расположение каналов : Front: L R
    Частота : 48,0 КГц
    Битовая глубина : 16 бит
    Метод сжатия : С потерями
    Размер потока : 156 Мбайт (1%)
    Заголовок : P2 | OPT
    Язык : Russian
    Default : Нет
    Forced : Нет

    Аудио #6
    Идентификатор : 7
    Формат : AC-3
    Формат/Информация : Audio Coding 3
    Расширение режима : CM (complete main)
    Параметр Endianness формата : Big
    Идентификатор кодека : A_AC3
    Продолжительность : 1 ч. 53 м.
    Вид битрейта : Постоянный
    Битрейт : 192 Кбит/сек
    Каналы : 2 канала
    Расположение каналов : Front: L R
    Частота : 48,0 КГц
    Битовая глубина : 16 бит
    Метод сжатия : С потерями
    Размер потока : 156 Мбайт (1%)
    Заголовок : P2 | HTB
    Язык : Russian
    Default : Нет
    Forced : Нет

    Аудио #7
    Идентификатор : 8
    Формат : AC-3
    Формат/Информация : Audio Coding 3
    Расширение режима : CM (complete main)
    Параметр Endianness формата : Big
    Идентификатор кодека : A_AC3
    Продолжительность : 1 ч. 53 м.
    Вид битрейта : Постоянный
    Битрейт : 192 Кбит/сек
    Каналы : 2 канала
    Расположение каналов : Front: L R
    Частота : 48,0 КГц
    Битовая глубина : 16 бит
    Метод сжатия : С потерями
    Размер потока : 156 Мбайт (1%)
    Заголовок : A | Михалев
    Язык : Russian
    Default : Нет
    Forced : Нет

    Аудио #8
    Идентификатор : 9
    Формат : AC-3
    Формат/Информация : Audio Coding 3
    Расширение режима : CM (complete main)
    Параметр Endianness формата : Big
    Идентификатор кодека : A_AC3
    Продолжительность : 1 ч. 53 м.
    Вид битрейта : Постоянный
    Битрейт : 448 Кбит/сек
    Каналы : 6 каналов
    Расположение каналов : Front: L C R, Side: L R, LFE
    Частота : 48,0 КГц
    Битовая глубина : 16 бит
    Метод сжатия : С потерями
    Размер потока : 365 Мбайт (2%)
    Заголовок : A | Живов
    Язык : Russian
    Default : Нет
    Forced : Нет

    Аудио #9
    Идентификатор : 10
    Формат : AC-3
    Формат/Информация : Audio Coding 3
    Расширение режима : CM (complete main)
    Параметр Endianness формата : Big
    Идентификатор кодека : A_AC3
    Продолжительность : 1 ч. 53 м.
    Вид битрейта : Постоянный
    Битрейт : 192 Кбит/сек
    Каналы : 2 канала
    Расположение каналов : Front: L R
    Частота : 48,0 КГц
    Битовая глубина : 16 бит
    Метод сжатия : С потерями
    Размер потока : 156 Мбайт (1%)
    Заголовок : A | Поздняков
    Язык : Russian
    Default : Нет
    Forced : Нет

    Аудио #10
    Идентификатор : 11
    Формат : AC-3
    Формат/Информация : Audio Coding 3
    Расширение режима : CM (complete main)
    Параметр Endianness формата : Big
    Идентификатор кодека : A_AC3
    Продолжительность : 1 ч. 53 м.
    Вид битрейта : Постоянный
    Битрейт : 448 Кбит/сек
    Каналы : 6 каналов
    Расположение каналов : Front: L C R, Side: L R, LFE
    Частота : 48,0 КГц
    Битовая глубина : 16 бит
    Метод сжатия : С потерями
    Размер потока : 365 Мбайт (2%)
    Заголовок : A | Либергал
    Язык : Russian
    Default : Нет
    Forced : Нет

    Аудио #11
    Идентификатор : 12
    Формат : DTS
    Формат/Информация : Digital Theater Systems
    Профиль формата : MA/Core
    Режим : 16
    Параметр Endianness формата : Big
    Идентификатор кодека : A_DTS
    Продолжительность : 1 ч. 53 м.
    Вид битрейта : Переменный
    Битрейт : Неизвестно/1509 Кбит/сек
    Каналы : 6 каналов
    Расположение каналов : Front: L C R, Side: L R, LFE
    Частота : 48,0 КГц
    Битовая глубина : 16 бит
    Метод сжатия : Без потерь/Lossy
    Заголовок : Original | Blu-ray CEE
    Язык : English
    Default : Нет
    Forced : Нет

    Текст #1
    Идентификатор : 13
    Формат : UTF-8
    Идентификатор кодека : S_TEXT/UTF8
    Идентификатор кодека/Информация : UTF-8 Plain Text
    Заголовок : Forced | Киномания
    Язык : Russian
    Default : Да
    Forced : Нет

    Текст #2
    Идентификатор : 14
    Формат : UTF-8
    Идентификатор кодека : S_TEXT/UTF8
    Идентификатор кодека/Информация : UTF-8 Plain Text
    Заголовок : Full | Киномания
    Язык : Russian
    Default : Нет
    Forced : Нет

    Текст #3
    Идентификатор : 15
    Формат : UTF-8
    Идентификатор кодека : S_TEXT/UTF8
    Идентификатор кодека/Информация : UTF-8 Plain Text
    Заголовок : Full | Поздняков
    Язык : Russian
    Default : Нет
    Forced : Нет

    Текст #4
    Идентификатор : 16
    Формат : UTF-8
    Идентификатор кодека : S_TEXT/UTF8
    Идентификатор кодека/Информация : UTF-8 Plain Text
    Заголовок : Full
    Язык : English
    Default : Нет
    Forced : Нет

    Текст #5
    Идентификатор : 17
    Формат : UTF-8
    Идентификатор кодека : S_TEXT/UTF8
    Идентификатор кодека/Информация : UTF-8 Plain Text
    Заголовок : SDH
    Язык : English
    Default : Нет
    Forced : Нет

    Меню
    00:00:00.000 : en:00:00:00.000
    00:10:59.033 : en:00:10:59.033
    00:20:05.037 : en:00:20:05.037
    00:28:21.032 : en:00:28:21.032
    00:33:12.198 : en:00:33:12.198
    00:40:11.575 : en:00:40:11.575
    00:44:03.641 : en:00:44:03.641
    00:51:42.140 : en:00:51:42.140
    01:01:10.541 : en:01:01:10.541
    01:08:11.796 : en:01:08:11.796
    01:14:49.026 : en:01:14:49.026
    01:24:46.039 : en:01:24:46.039
    01:29:42.752 : en:01:29:42.752
    01:34:11.979 : en:01:34:11.979
    01:38:02.418 : en:01:38:02.418
    01:45:57.893 : en:01:45:57.893



    Релиз подготовил:
    Размер скачиваемого торрента: 15.55 GB (16699129001 Bytes)

    Таксист/Taxi Driver (1976) BDRip 1080p | P, P2, A скачать через торрент бесплатно
    загрузка...
    Рейтинг →
     (голосов: 1, оценка 5/5, голосовать можно 1 раз )

    Другие торренты по теме:

  • Хэк / Таксист / Таксист Майк / Hack (2002-2003) SATRip | P2
  • Таксист / Taxi Driver (1976) BDRip 1080p от NoLimits-Team | P, A
  • Таксист / Taxi Driver (1976) BDRip 1080p | Mastered in 4K | от Youtracker
  • Таксист / Taxi Driver (1976) BDRip 720p от Leonardo and Scarabey | Mastered in 4K скачать через торрент бесплатно
  • Таксист / Taxi Driver (1976) HDRip
  • Таксист / Taxi Driver (1976) HDRip от Scarabey | Р
  • Таксист / Taxi Driver (1976) BDRip 720p | Mastered in 4K | от New Team скачать через торрент бесплатно
  • Таксист / Taxi Driver (1976) BDRip-AVC от MediaClub | P, P2, A


    • Комментарии (0):

      Информация

      Информация

        Посетители, находящиеся в группе Гости, не могут оставлять комментарии в данной новости.

        ↓ Меню



        ↓ Опрос

        А Вы добавили сайт в закладки?
        Да
        Не


        Top 10 за месяц (Фильмы)