.
Авторизация | Регистрация
Хочешь лучшие торренты? Добавь свой email!
Добавить
» » Судная ночь 2 / The Purge: Anarchy (2014) DVD9 | Лицензия скачать торрент бесплатно




    Судная ночь 2 / The Purge: Anarchy (2014) DVD9 | Лицензия скачать торрент бесплатно

    Опубликовал: Админ | Дата: 27-02-2015, 11:10 | Просмотров: 226


    Детально о кино
    Русское название:Судная ночь 2
    Русское название в мировом прокате:The Purge: Anarchy
    Создали в:2014
    Категория жанра:триллер, криминал, боевик
    Главный режиссер:Джеймс ДеМонако

    Актеры
    Фрэнк Грилло, Кармен Эджого, Зак Гилфорд, Киле Санчес, Майкл Кеннет Уильямс, Зои Борд, Жустина Мачадо, Джон Бизли, Джек Конли, Ноэль Гульеми

    Сюжет фильма

    Добро пожаловать в идеальный мир будущего, мир без преступности и войн. И только один раз в году роскошная спокойная жизнь сменяется анархией. Этой ночью дозволено все: во тьме улиц одни жаждут мести, другие ищут развлечений, остальные пытаются дожить до рассвета…


    лицам до 17 лет обязательно присутствие взрослого
    Снималось в:США, Франция
    Киностудия:Platinum Dunes, Universal Pictures
    Время просмотра:99 мин./01:39
    Перевод текста:полное дублирование
    Дополнительно:Не пропустите на Blu-Ray и DVD
    Файл
    Кодек для видео:MPEG2
    Качество фильма:DVD9
    Информация о видео:PAL 16:9 (720x576@1024x576) VBR 7076 Kbps, 25.000 fps
    Информация о звуке 1:Dolby AC3, 6 ch, 48.0 KHz, 384 Kbpsанглийский
    Информация о звуке 2:Dolby AC3, 6 ch, 48.0 KHz, 384 Kbpsрусский
    Информация о звуке 3:Dolby AC3, 6 ch, 48.0 KHz, 384 Kbpsчешский
    Информация о звуке 4:Dolby AC3, 6 ch, 48.0 KHz, 384 Kbpsвенгерский
    Информация о звуке 5:Dolby AC3, 6 ch, 48.0 KHz, 384 Kbpsпольский
    Субтитры:русские, украинские, английские, венгерские, чешские, польские, болгарские, хорватские, греческие, иврит, румынские, эстонские, латышские, литовские, словенские
    DVDinfo
    Title: THE_PURGE_ANARCHY
    Size: 7.06 Gb ( 7 398 208,00 KBytes ) - DVD-9
    Enabled regions: 2, 5
    VTS_01 :
    Play Length: 00:00:25
    Video: PAL 16:9 (720x576) VBR, Auto Letterboxed
    Audio:
    English (Dolby AC3, 6 ch)
    VTS_02 :
    Play Length: 00:00:14
    Video: PAL 16:9 (720x576) VBR, Auto Letterboxed
    Audio:
    English (Dolby AC3, 6 ch)
    VTS_03 :
    Play Length: 00:00:00
    Video: PAL 16:9 (720x576) VBR, Auto Letterboxed
    Audio:
    English (Dolby AC3, 2 ch)
    English (Dolby AC3, 2 ch)
    English (Dolby AC3, 2 ch)
    English (Dolby AC3, 2 ch)
    English (Dolby AC3, 2 ch)
    English (Dolby AC3, 2 ch)
    English (Dolby AC3, 2 ch)
    English (Dolby AC3, 2 ch)
    Subtitles:
    English
    VTS_04 :
    Play Length: 00:00:08+00:00:08+00:00:08
    Video: PAL 16:9 (720x576) VBR, Auto Letterboxed
    Audio:
    English (Dolby AC3, 2 ch)
    VTS_05 :
    Play Length: 00:02:22+00:02:25+00:01:33+00:02:24+00:01:37
    Video: PAL 16:9 (720x576) VBR, Auto Letterboxed
    Audio:
    English (Dolby AC3, 2 ch)
    Subtitles:
    English
    Magyar
    Russian
    Czech(Ceske)
    Polish
    Bulgarian
    Greek
    Hebrew
    Romanian
    VTS_06 :
    Play Length: 01:39:15
    Video: PAL 16:9 (720x576) VBR, Auto Letterboxed
    Audio:
    English (Dolby AC3, 6 ch)
    Magyar (Dolby AC3, 6 ch)
    Russian (Dolby AC3, 6 ch)
    Czech(Ceske) (Dolby AC3, 6 ch)
    Polish (Dolby AC3, 6 ch)
    Subtitles:
    English
    Magyar
    Russian
    Czech(Ceske)
    Polish
    Bulgarian
    Hrvatski
    Greek
    Hebrew
    Romanian
    Estonian
    Latvian
    Lithuanian
    Slovenian
    Ukrainian
    Magyar
    Russian
    Czech(Ceske)

    MediaInfo
    General
    Complete name : D:THE_PURGE_ANARCHYVIDEO_TSVTS_06_1.VOB
    Format : MPEG-PS
    File size : 1 023 MiB
    Duration : 15mn 35s
    Overall bit rate mode : Variable
    Overall bit rate : 9 179 Kbps
    Video
    ID : 224 (0xE0)
    Format : MPEG Video
    Format version : Version 2
    Format profile : Main@Main
    Format settings, BVOP : Yes
    Format settings, Matrix : Custom
    Format settings, GOP : Variable
    Format settings, picture struc : Frame
    Duration : 15mn 35s
    Bit rate mode : Variable
    Bit rate : 7 076 Kbps
    Maximum bit rate : 9 800 Kbps
    Width : 720 pixels
    Height : 576 pixels
    Display aspect ratio : 16:9
    Frame rate : 25.000 fps
    Standard : PAL
    Color space : YUV
    Chroma subsampling : 4:2:0
    Bit depth : 8 bits
    Scan type : Interlaced
    Scan order : Top Field First
    Compression mode : Lossy
    Bits/(Pixel*Frame) : 0.682
    Time code of first frame : 00:59:59:00
    Time code source : Group of pictures t_head
    Stream size : 789 MiB (77%)
    Audio #1
    ID : 189 (0xBD)-128 (0x80)
    Format : AC-3
    Format/Info : Audio Coding 3
    Mode extension : CM (complete main)
    Format settings, Endianness : Big
    Muxing mode : DVD-Video
    Duration : 15mn 35s
    Bit rate mode : Constant
    Bit rate : 384 Kbps
    Channel(s) : 6 channels
    Channel positions : Front: L C R, Side: L R, LFE
    Sampling rate : 48.0 KHz
    Bit depth : 16 bits
    Compression mode : Lossy
    Stream size : 42.8 MiB (4%)
    Audio #2
    ID : 189 (0xBD)-129 (0x81)
    Format : AC-3
    Format/Info : Audio Coding 3
    Mode extension : CM (complete main)
    Format settings, Endianness : Big
    Muxing mode : DVD-Video
    Duration : 15mn 35s
    Bit rate mode : Constant
    Bit rate : 384 Kbps
    Channel(s) : 6 channels
    Channel positions : Front: L C R, Side: L R, LFE
    Sampling rate : 48.0 KHz
    Bit depth : 16 bits
    Compression mode : Lossy
    Stream size : 42.8 MiB (4%)
    Audio #3
    ID : 189 (0xBD)-130 (0x82)
    Format : AC-3
    Format/Info : Audio Coding 3
    Mode extension : CM (complete main)
    Format settings, Endianness : Big
    Muxing mode : DVD-Video
    Duration : 15mn 35s
    Bit rate mode : Constant
    Bit rate : 384 Kbps
    Channel(s) : 6 channels
    Channel positions : Front: L C R, Side: L R, LFE
    Sampling rate : 48.0 KHz
    Bit depth : 16 bits
    Compression mode : Lossy
    Stream size : 42.8 MiB (4%)
    Audio #4
    ID : 189 (0xBD)-131 (0x83)
    Format : AC-3
    Format/Info : Audio Coding 3
    Mode extension : CM (complete main)
    Format settings, Endianness : Big
    Muxing mode : DVD-Video
    Duration : 15mn 35s
    Bit rate mode : Constant
    Bit rate : 384 Kbps
    Channel(s) : 6 channels
    Channel positions : Front: L C R, Side: L R, LFE
    Sampling rate : 48.0 KHz
    Bit depth : 16 bits
    Compression mode : Lossy
    Stream size : 42.8 MiB (4%)
    Audio #5
    ID : 189 (0xBD)-132 (0x84)
    Format : AC-3
    Format/Info : Audio Coding 3
    Mode extension : CM (complete main)
    Format settings, Endianness : Big
    Muxing mode : DVD-Video
    Duration : 15mn 35s
    Bit rate mode : Constant
    Bit rate : 384 Kbps
    Channel(s) : 6 channels
    Channel positions : Front: L C R, Side: L R, LFE
    Sampling rate : 48.0 KHz
    Bit depth : 16 bits
    Compression mode : Lossy
    Stream size : 42.8 MiB (4%)
    Menu

    Скриншоты

    Залил: carisha
    Размер скачиваемого торрента: 7.06 GB (7575764992 Bytes)

    Судная ночь 2/The Purge: Anarchy (2014) DVD9 | Лицензия торрент скачать бесплатно
    загрузка...
    Рейтинг →
     (голосов: 1, оценка 5/5, голосовать можно 1 раз )

    Другие торренты по теме:

  • Судная ночь / The Purge (2013) HD 1080p | Трейлер
  • Судная ночь / The Purge (2013) BDRip 1080p | D | iTunes Russia
  • Судная ночь / The Purge (2013) BDRip-AVC | D | iTunes Russia
  • Судная ночь / The Purge (2013) BDRip 720p от leonardo 59 Scarabey | iTunes Russia скачать через торрент бесплатно
  • Судная ночь / The Purge (2013) BDRip 720p от DHT-Movies | iTunes Russia скачать через торрент бесплатно
  • Судная ночь / The Purge (2013) BDRip-AVC от HELLYWOOD | iTunes Russia скачать через торрент бесплатно
  • Судная ночь / The Purge (2013) BDRip 720p от MULTIBITS | iTunes Russia скачать через торрент бесплатно
  • Судная ночь / The Purge (2013) BDRip 720p от HELLYWOOD | iTunes Russia


    • Комментарии (0):

      Информация

      Информация

        Посетители, находящиеся в группе Гости, не могут оставлять комментарии в данной новости.

        ↓ Меню



        ↓ Опрос

        А Вы добавили сайт в закладки?
        Да
        Не


        Top 10 за месяц (Фильмы)