.
Авторизация | Регистрация
Хочешь лучшие торренты? Добавь свой email!
Добавить
» » Джон Уик / John Wick (2014) WEB-DLRip-AVC | A, L2 скачать через торрент бесплатно




    Джон Уик / John Wick (2014) WEB-DLRip-AVC | A, L2 скачать через торрент бесплатно

    Опубликовал: Админ | Дата: 27-02-2015, 11:10 | Просмотров: 143


    Русское название:Джон Уик
    Русское название в мировом прокате:John Wick
    Создали в:2014
    Категория жанра:Боевик, драма, триллер, криминал
    Снималось в:США, Канада, Китай, 87Eleven, Company Films, DefyNite Films
    Время просмотра:01:41:12
    Перевод текста:Авторский одноголосый, закадровый)Д.Есарев, любительский двухголосыйКиностудия Paradox
    Субтитры:Русские (на невнятную русскую речь), английские,русские А.Матвеева
    Главный режиссер:Дэвид Лейтч, Чад Стахелски

    Актеры
    Киану Ривз, Микаэл Нюквист, Элфи Оуэн-Аллен, Уиллем Дефо, Дин Уинтерс, Эдрианн Палики, Омер Барнеа, Тоби Мур, Дэниэл Бернхард, Бриджет Мойнэхэн

    Сюжет фильма
    Джон Уик — бывший наемный убийца — ведет размеренную жизнь, когда преступник крадет его любимый Mustang 1969 года и попутно убивает собаку Дейзи, единственное живое напоминание об умершей жене. Жажда мести пробуждает в нем, казалось, утерянную хватку…

    Качество фильма:WEB-DLRip (AVC)
    Информация о видео:AVC, 1024x428 (2.35:1), 23.976 fps, 1 968 Kbps (0.187 bit/pixel)
    Информация о звуке #1:AC-3, 48.0 KHz, 6 ch, 384 Kbps, CBR (Russian) - одноголосый
    Информация о звуке #2:AC-3, 48.0 KHz, 6 ch, 384 Kbps, CBR (Russian) - двухголосый
    Информация о звуке #3:AC-3, 48.0 KHz, 6 ch, 384 Kbps, CBR (English) - оригинал
    Размер скачиваемого торрента:2.25 ГБ
    Сэмпл
    Автор рипа:
    MediaInfo:
    Общее
    Уникальный идентификатор : 217913472569219760899219324661726423196 (0xA3F09BB3B1649861BA8530B84ADBA89C)
    Полное имя : D:Джон Уик. 2014 (К.Ривз, У.Дэфо).mkv
    Формат : Matroska
    Версия формата : Version 2
    Размер файла : 2,25 Гбайт
    Продолжительность : 1 ч. 41 м.
    Общий поток : 3183 Кбит/сек
    Название фильма : Релиз FAGOT100
    Дата кодирования : UTC 2015-01-14 03:09:58
    Программа кодирования : mkvmerge v5.3.0 (;I could have danced;) built on Feb 9 2012 10:38:07
    Библиотека кодирования : libebml v1.2.3 + libmatroska v1.3.0
    Attachment : Yes
    Видео
    Идентификатор : 1
    Формат : AVC
    Формат/Информация : Advanced Video Codec
    Профиль формата : High@L4.1
    Параметр CABAC формата : Да
    Параметр ReFrames формата : 9 кадров
    Идентификатор кодека : V_MPEG4/ISO/AVC
    Продолжительность : 1 ч. 41 м.
    Битрейт : 1968 Кбит/сек
    Ширина : 1024 пикселя
    Высота : 428 пикселей
    Соотношение сторон : 2,40:1
    Режим частоты кадров : Постоянный
    Частота кадров : 23,976 кадра/сек
    Цветовое пространство : YUV
    Субдискретизация насыщенности : 4:2:0
    Битовая глубина : 8 бит
    Тип развёртки : Прогрессивная
    Бит/(Пиксели*Кадры) : 0.187
    Размер потока : 1,39 Гбайт (62%)
    Библиотека кодирования : x264 core 142 r2431 ac76440
    Настройки программы : cabac=1/ref=9/deblock=1:-2:-2/analyse=0x3:0x133/me=umh/subme=10/psy=1/psy_rd=1.00:0.05/mixed_ref=1/me_range=32/chroma_me=1/trellis=2/8x8dct=1/cqm=0/deadzone=21,11/fast_pskip=1/chroma_qp_offset=-3/threads=12/lookahead_threads=2/sliced_threads=0/nr=0/decimate=1/interlaced=0/bluray_compat=0/constrained_intra=0/bframes=9/b_pyramid=2/b_adapt=2/b_bias=0/direct=3/weightb=1/open_gop=0/weightp=2/keyint=240/keyint_min=23/scenecut=40/intra_refresh=0/rc=crf/mbtree=0/crf=17.5/qcomp=0.60/qpmin=0/qpmax=69/qpstep=4/ip_ratio=1.40/pb_ratio=1.30/aq=1:1.00
    Язык : English
    Default : Да
    Forced : Нет
    Аудио #1
    Идентификатор : 2
    Формат : AC-3
    Формат/Информация : Audio Coding 3
    Расширение режима : CM (complete main)
    Параметр Endianness формата : Big
    Идентификатор кодека : A_AC3
    Продолжительность : 1 ч. 41 м.
    Вид битрейта : Постоянный
    Битрейт : 384 Кбит/сек
    Каналы : 6 каналов
    Расположение каналов : Front: L C R, Side: L R, LFE
    Частота : 48,0 КГц
    Битовая глубина : 16 бит
    Метод сжатия : С потерями
    Размер потока : 278 Мбайт (12%)
    Заголовок : Авторский Д.Есарев
    Язык : Russian
    Default : Да
    Forced : Нет
    Аудио #2
    Идентификатор : 3
    Формат : AC-3
    Формат/Информация : Audio Coding 3
    Расширение режима : CM (complete main)
    Параметр Endianness формата : Big
    Идентификатор кодека : A_AC3
    Продолжительность : 1 ч. 41 м.
    Вид битрейта : Постоянный
    Битрейт : 384 Кбит/сек
    Каналы : 6 каналов
    Расположение каналов : Front: L C R, Side: L R, LFE
    Частота : 48,0 КГц
    Битовая глубина : 16 бит
    Метод сжатия : С потерями
    Размер потока : 278 Мбайт (12%)
    Заголовок : Любительский двухголосый (Студия Paradox)
    Язык : Russian
    Default : Нет
    Forced : Нет
    Аудио #3
    Идентификатор : 4
    Формат : AC-3
    Формат/Информация : Audio Coding 3
    Расширение режима : CM (complete main)
    Параметр Endianness формата : Big
    Идентификатор кодека : A_AC3
    Продолжительность : 1 ч. 41 м.
    Вид битрейта : Постоянный
    Битрейт : 384 Кбит/сек
    Каналы : 6 каналов
    Расположение каналов : Front: L C R, Side: L R, LFE
    Частота : 48,0 КГц
    Битовая глубина : 16 бит
    Метод сжатия : С потерями
    Размер потока : 278 Мбайт (12%)
    Заголовок : оригинал
    Язык : English
    Default : Нет
    Forced : Нет
    Текст #1
    Идентификатор : 5
    Формат : UTF-8
    Идентификатор кодека : S_TEXT/UTF8
    Идентификатор кодека/Информация : UTF-8 Plain Text
    Заголовок : На невнятную русскую речь
    Язык : Russian
    Default : Да
    Forced : Да
    Текст #2
    Идентификатор : 6
    Формат : UTF-8
    Идентификатор кодека : S_TEXT/UTF8
    Идентификатор кодека/Информация : UTF-8 Plain Text
    Язык : English
    Default : Нет
    Forced : Нет
    Меню
    00:00:00.000 : en:Chapter 1
    00:04:57.000 : en:Chapter 2
    00:12:22.000 : en:Chapter 3
    00:17:07.000 : en:Chapter 4
    00:26:25.000 : en:Chapter 5
    00:32:40.000 : en:Chapter 6
    00:36:24.000 : en:Chapter 7
    00:42:16.000 : en:Chapter 8
    00:45:33.000 : en:Chapter 9
    00:55:02.000 : en:Chapter 10
    00:59:27.000 : en:Chapter 11
    01:06:13.000 : en:Chapter 12
    01:14:17.000 : en:Chapter 13
    01:19:13.000 : en:Chapter 14
    01:27:29.000 : en:Chapter 15
    01:32:24.000 : en:Chapter 16
    Скриншоты



    Размер скачиваемого торрента: 2.25 GB (2416131523 Bytes)

    Джон Уик/John Wick (2014) WEB-DLRip-AVC | A, L2 скачать через торрент бесплатно
    загрузка...
    Рейтинг →
     (голосов: 1, оценка 3/5, голосовать можно 1 раз )

    Другие торренты по теме:

  • Джон Уик (2014) скачать через торрент бесплатно
  • Джон Уик / John Wick (2014) CAMRip скачать через торрент бесплатно
  • Джон Уик / John Wick (2014) WEB-DLRip | A
  • Джон Уик / John Wick (2014) WEB-DLRip от Scarabey | Чистый звук скачать через торрент бесплатно
  • Джон Уик / John Wick (2014) WEB-DLRip от Scarabey | Чистый звук
  • Джон Уик / John Wick (2014) HDRip от Scarabey | Чистый звук скачать через торрент бесплатно
  • Джон Уик / John Wick (2014) BDRip 1080p | A скачать через торрент бесплатно
  • Джон Уик / John Wick (2014) BDRip 1080p от Leonardo and Scarabey | Чистый звук


    • Комментарии (0):

      Информация

      Информация

        Посетители, находящиеся в группе Гости, не могут оставлять комментарии в данной новости.

        ↓ Меню



        ↓ Опрос

        А Вы добавили сайт в закладки?
        Да
        Не


        Top 10 за месяц (Фильмы)