.
Авторизация | Регистрация
Хочешь лучшие торренты? Добавь свой email!
Добавить
» » Мотель / The Bag Man (2014) BDRip 720p | KinoGadget | iPad скачать через торрент бесплатно




    Мотель / The Bag Man (2014) BDRip 720p | KinoGadget | iPad скачать через торрент бесплатно

    Опубликовал: Админ | Дата: 27-02-2015, 11:10 | Просмотров: 134


    Создали в: 2014
    Снималось в: США, Багамы
    Категория жанра: триллер, криминал
    Время просмотра: 01:48:39
    Перевод текста: Профессиональный многоголосый
    Главный режиссер: Дэвид Гровик

    Актеры
    Роберт Де Ниро, Джон Кьюсак, Ребекка Да Коста, Криспин Гловер, Доминик Пёрселл, Стикки Фингаз, Мартин Клеббэ, Дэвид Шамбрис, Чезз Менендес, Йен Маклафлин
    Описание: Наемный убийца Джек Стаффорд получает несложное задание: приехать в заштатный мотель в 300 милях от Питтсбурга, получить сумку с таинственным содержимым и оставаться в номере, пока за грузом не приедут. Условие одно: ни при каких обстоятельствах не заглядывать внутрь сумки. Но поручение оказывается простым лишь на первый взгляд. Вскоре киллер понимает, что за доверенным ему предметом охотятся коррумпированные агенты ФБР, продажные полицейские, провинциальные гангстеры и кровожадный карлик-цыган из Сербии. И каждый хочет всадить в Джека пулю. Число жертв растет на глазах, и дожить до рассвета смогут далеко не все постояльцы мотеля.

    Информация о видео кодек:MPEG-4 AVC
    Качество фильма:BDRip 720p
    Параметры Видео:1280x528, 23.976 fps; ~1 629 kbps avg
    Параметры Звука:48.0 KHz, AAC, ~165.00 kbps avg, 2ch
    Тип видео:mp4
    Релиз:
    Meta Tags


    MI
    General
    Complete name : E:Motel.2014.P.BDRip.720p_KinoGadget.mp4
    Format : MPEG-4
    Format profile : Base Media
    Codec ID : isom
    File size : 1.37 GiB
    Duration : 1h 48mn
    Overall bit rate mode : Variable
    Overall bit rate : 1 802 Kbps
    Movie name : Мотель/Сумка
    Performer : Дэвид Гровик
    Genre : Crime, Drama, Thriller
    ContentType : Short Film
    Recorded date : 2014
    Encoded date : UTC 2015-01-12 15:27:37
    Tagged date : UTC 2015-01-12 15:47:57
    Cover : Yes
    ContentRating : mpaa|R|400|
    LongDeion : Наемный убийца Джек Стаффорд получает несложное задание: приехать в заштатный мотель в 300 милях от Питтсбурга, получить сумку с таинственным содержимым и оставаться в номере, пока за грузом не приедут. Условие одно: ни при каких обстоятельствах не заглядывать внутрь сумки. Но поручение оказывается простым лишь на первый взгляд. Вскоре киллер понимает, что за доверенным ему предметом охотятся коррумпированные агенты ФБР, продажные полицейские, провинциальные гангстеры и кровожадный карлик-цыган из Сербии. И каждый хочет всадить в Джека пулю.
    HDVideo : Yes
    Video
    ID : 1
    Format : AVC
    Format/Info : Advanced Video Codec
    Format profile : High@L4.1
    Format settings, CABAC : Yes
    Format settings, ReFrames : 11 frames
    Codec ID : avc1
    Codec ID/Info : Advanced Video Coding
    Duration : 1h 48mn
    Bit rate : 1 629 Kbps
    Maximum bit rate : 8 593 Kbps
    Width : 1 280 pixels
    Height : 528 pixels
    Display aspect ratio : 2.40:1
    Frame rate mode : Constant
    Frame rate : 23.976 fps
    Color space : YUV
    Chroma subsampling : 4:2:0
    Bit depth : 8 bits
    Scan type : Progressive
    Bits/(Pixel*Frame) : 0.101
    Stream size : 1.24 GiB (90%)
    Writing library : x264 core 144 r2525 40bb568
    Encoding settings : cabac=1/ref=11/deblock=1:-1:-1/analyse=0x3:0x133/me=umh/subme=10/psy=1/psy_rd=1.00:0.20/mixed_ref=1/me_range=24/chroma_me=1/trellis=2/8x8dct=1/cqm=0/deadzone=21,11/fast_pskip=1/chroma_qp_offset=-3/threads=3/lookahead_threads=1/sliced_threads=0/nr=0/decimate=1/interlaced=0/bluray_compat=0/constrained_intra=0/bframes=6/b_pyramid=2/b_adapt=2/b_bias=0/direct=3/weightb=1/open_gop=0/weightp=2/keyint=240/keyint_min=23/scenecut=40/intra_refresh=0/rc_lookahead=60/rc=crf/mbtree=1/crf=21.0/qcomp=0.60/qpmin=0/qpmax=69/qpstep=4/ip_ratio=1.40/aq=1:1.70
    Encoded date : UTC 2015-01-12 14:41:25
    Tagged date : UTC 2015-01-12 15:28:35
    Audio
    ID : 2
    Format : AAC
    Format/Info : Advanced Audio Codec
    Format profile : LC
    Codec ID : 40
    Duration : 1h 48mn
    Duration_FirstFrame : 64ms
    Bit rate mode : Variable
    Bit rate : 165 Kbps
    Maximum bit rate : 243 Kbps
    Channel count : 2 channels
    Channel positions : Front: L R
    Sampling rate : 48.0 KHz
    Compression mode : Lossy
    Stream size : 128 MiB (9%)
    Language : Russian
    Tagged date : UTC 2015-01-12 15:28:35

    Скриншоты


    Залил: KinoGadget
    Размер скачиваемого торрента: 1.37 GB (1468217287 Bytes)

    Мотель/The Bag Man (2014) BDRip 720p | KinoGadget | iPad скачать через торрент бесплатно
    загрузка...
    Рейтинг →
     (голосов: 1, оценка 3/5, голосовать можно 1 раз )

    Другие торренты по теме:

  • Адский мотель / Мотель Ад / Motel Hell (1980) BDRip-AVC от olegek70 | A
  • Мотель Бейтса (Мотель Бэйтс) / Bates Motel (2013) WEB-DL 1080p от MediaClub
  • Мотель Бейтса (Мотель Бэйтс) / Bates Motel (2013) WEB-DL 720p от MediaClub
  • Мотель Бейтса / Мотель Бэйтс / Bates Motel (2013) WEB-DLRip | LostFilm
  • Мотель Бейтса / Мотель Бейтсов / Bates Motel (2014) WEB-DLRip | NewStudio скачать через торрент бесплатно
  • Мотель Бейтса / Мотель Бейтсов / Bates Motel (2014) WEB-DLRip | LostFilm
  • Мотель Бейтса / Мотель Бейтсов / Bates Motel (2014) WEB-DLRip от Scarabey | LostFilm
  • Мотель Бейтса / Мотель Бейтсов / Bates Motel (2014) WEB-DL 720p | LostFilm, NewStudio


    • Комментарии (0):

      Информация

      Информация

        Посетители, находящиеся в группе Гости, не могут оставлять комментарии в данной новости.

        ↓ Меню



        ↓ Опрос

        А Вы добавили сайт в закладки?
        Да
        Не


        Top 10 за месяц (Фильмы)