.
Авторизация | Регистрация
Хочешь лучшие торренты? Добавь свой email!
Добавить
» » Силы природы / Forces of Nature (1999) WEB-DLRip от Leon-masl | P скачать торрент бесплатно




    Силы природы / Forces of Nature (1999) WEB-DLRip от Leon-masl | P скачать торрент бесплатно

    Опубликовал: Админ | Дата: 27-02-2015, 11:10 | Просмотров: 216


    Детально о кино
    Русское название:Силы природы
    Русское название в мировом прокате:Forces of Nature
    Создали в:1999
    Категория жанра:мелодрама, комедия
    Главный режиссер:Бронуэн Хьюз

    Актеры
    Бен Аффлек,Сандра Буллок, Мора Тирни,Стив Зан, Блайт Даннер, Ронни Кокс, Майкл Фэйрмэн, Ричард Шифф, Афина Мария Бицис, Афемо Омилами

    Сюжет фильма

    У героя этой картины, Бена, в запасе всего два дня, чтобы добраться из Нью-Йорка в городок Саванна, что в штате Джорджия, и успеть на собственную свадьбу с прекрасной девушкой. Но внезапно на его пути возникает непреодолимое препятствие в лице разбушевавшейся природы. Самолет, в котором герой отправляется к своей невесте, попадает в аварию.
    Теперь Бену и его новой эксцентричной попутчице, по имени Сара, предстоит захватывающее совместное путешествие. Атмосферные катаклизмы и дорожные происшествия продолжают неотступно преследовать их в пути. А тут еще Бен с ужасом начинает осознавать, что влюбляется в Сару…

    Снималось в:США
    Время просмотра:01:45:54
    Перевод текста:Профессиональный (многоголосый закадровый), iTunes Russia
    Файл
    Кодек для видео:XviD
    Качество фильма:WEB-DLRip
    Информация о видео:720x400, 23.976 fps, 1594 kbps
    Информация о звуке:48 kHz, AC3, 3/2 (L,C,R,l,r) + LFE ch, ~384.00 kbps
    MI
    Общее
    Полное имя : Forces.of.Nature.1999.WEB-DLRip.avi
    Формат : AVI
    Формат/Информация : Audio Video Interleave
    Размер файла : 1,47 Гбайт
    Продолжительность : 1 ч. 45 м.
    Общий поток : 1987 Кбит/сек
    Программа кодирования : VirtualDubMod 1.5.10.3 | www.virtualdub-fr.org || (build 2550/release)
    Библиотека кодирования : VirtualDubMod build 2550/release
    Видео
    Идентификатор : 0
    Формат : MPEG-4 Visual
    Профиль формата : Advanced Simple@L5
    Параметр BVOP формата : 1
    Параметр QPel формата : Нет
    Параметр GMC формата : Без точки перехода
    Параметр матрицы формата : Выборочная
    Идентификатор кодека : XVID
    Идентификатор кодека/Подсказка : XviD
    Продолжительность : 1 ч. 45 м.
    Битрейт : 1594 Кбит/сек
    Ширина : 720 пикс.
    Высота : 400 пикс.
    Соотношение сторон : 16:9
    Частота кадров : 23,976 кадр/сек
    Цветовое пространство : YUV
    Подвыборка цветности : 4:2:0
    Битовая глубина : 8 бит
    Тип развёртки : Прогрессивная
    Метод сжатия : С потерями
    Бит/(Пиксели*Кадры) : 0.231
    Размер потока : 1,18 Гбайт (80%)
    Библиотека кодирования : XviD 73
    Аудио
    Идентификатор : 1
    Формат : AC-3
    Формат/Информация : Audio Coding 3
    Расширение режима : CM (complete main)
    Идентификатор кодека : 2000
    Продолжительность : 1 ч. 45 м.
    Вид битрейта : Постоянный
    Битрейт : 384 Кбит/сек
    Канал(ы) : 6 канала(ов)
    Расположение каналов : Front: L C R, Side: L R, LFE
    Частота : 48,0 КГц
    Битовая глубина : 16 бит
    Метод сжатия : С потерями
    Размер потока : 291 Мбайт (19%)
    Выравнивание : Разделение по промежуткам
    Продолжительность промежутка : 42 мс. (1,00 видеокадр)
    Время предзагрузки промежутка : 500 ms
    Скриншоты

    Релиз подготовил:Leon-masl
    Залил: leon-masl
    Размер скачиваемого торрента: 1.47 GB (1578166272 Bytes)

    Силы природы/Forces of Nature (1999) WEB-DLRip от Leon-masl | P торрент скачать бесплатно
    загрузка...
    Рейтинг →
     (голосов: 1, оценка 3/5, голосовать можно 1 раз )

    Другие торренты по теме:

  • Силы природы / Forces of Nature (1999) WEB-DL 720p | P


    • Комментарии (0):

      Информация

      Информация

        Посетители, находящиеся в группе Гости, не могут оставлять комментарии в данной новости.

        ↓ Меню



        ↓ Опрос

        А Вы добавили сайт в закладки?
        Да
        Не


        Top 10 за месяц (Фильмы)